<svg xmlns="http://www.w3.org/2000/svg"><defs><font horiz-adv-x="1536"><font-face units-per-em="1792" ascent="1536" descent="-256"/><glyph horiz-adv-x="448"/><glyph horiz-adv-x="448"/><glyph horiz-adv-x="448"/><glyph unicode="¨" horiz-adv-x="1792"/><glyph unicode="©" horiz-adv-x="1792"/><glyph unicode="®" horiz-adv-x="1792"/><glyph unicode="´" horiz-adv-x="1792"/><glyph unicode="Æ" horiz-adv-x="1792"/><glyph horiz-adv-x="768"/><glyph/><glyph horiz-adv-x="768"/><glyph/><glyph horiz-adv-x="512"/><glyph horiz-adv-x="384"/><glyph horiz-adv-x="256"/><glyph horiz-adv-x="256"/><glyph horiz-adv-x="192"/><glyph horiz-adv-x="307"/><glyph horiz-adv-x="85"/><glyph horiz-adv-x="307"/><glyph horiz-adv-x="384"/><glyph unicode="™" horiz-adv-x="1792"/><glyph unicode="∞" horiz-adv-x="1792"/><glyph unicode="≠" horiz-adv-x="1792"/><glyph unicode="" horiz-adv-x="500" d="M0 0z"/><glyph unicode="" horiz-adv-x="1792" d="M1699 1350q0-35-43-78l-632-632v-768h320q26 0 45-19t19-45-19-45-45-19h-896q-26 0-45 19t-19 45 19 45 45 19h320v768l-632 632q-43 43-43 78 0 23 18 36.5t38 17.5 43 4h1408q23 0 43-4t38-17.5 18-36.5z"/><glyph unicode="" d="M1536 1312v-1120q0-50-34-89t-86-60.5-103.5-32-96.5-10.5-96.5 10.5-103.5 32-86 60.5-34 89 34 89 86 60.5 103.5 32 96.5 10.5q105 0 192-39v537l-768-237v-709q0-50-34-89t-86-60.5-103.5-32-96.5-10.5-96.5 10.5-103.5 32-86 60.5-34 89 34 89 86 60.5 103.5 32 96.5 10.5q105 0 192-39v967q0 31 19 56.5t49 35.5l832 256q12 4 28 4 40 0 68-28t28-68z"/><glyph unicode="" horiz-adv-x="1664" d="M1152 704q0 185-131.5 316.5t-316.5 131.5-316.5-131.5-131.5-316.5 131.5-316.5 316.5-131.5 316.5 131.5 131.5 316.5zm512-832q0-52-38-90t-90-38q-54 0-90 38l-343 342q-179-124-399-124-143 0-273.5 55.5t-225 150-150 225-55.5 273.5 55.5 273.5 150 225 225 150 273.5 55.5 273.5-55.5 225-150 150-225 55.5-273.5q0-220-124-399l343-343q37-37 37-90z"/><glyph unicode="" horiz-adv-x="1792" d="M1664 32v768q-32-36-69-66-268-206-426-338-51-43-83-67t-86.5-48.5-102.5-24.5h-2q-48 0-102.5 24.5t-86.5 48.5-83 67q-158 132-426 338-37 30-69 66v-768q0-13 9.5-22.5t22.5-9.5h1472q13 0 22.5 9.5t9.5 22.5zm0 1051v24.5l-.5 13-3 12.5-5.5 9-9 7.5-14 2.5h-1472q-13 0-22.5-9.5t-9.5-22.5q0-168 147-284 193-152 401-317 6-5 35-29.5t46-37.5 44.5-31.5 50.5-27.5 43-9h2q20 0 43 9t50.5 27.5 44.5 31.5 46 37.5 35 29.5q208 165 401 317 54 43 100.5 115.5t46.5 131.5zm128 37v-1088q0-66-47-113t-113-47h-1472q-66 0-113 47t-47 113v1088q0 66 47 113t113 47h1472q66 0 113-47t47-113z"/><glyph unicode="" horiz-adv-x="1792" d="M896-128q-26 0-44 18l-624 602q-10 8-27.5 26t-55.5 65.5-68 97.5-53.5 121-23.5 138q0 220 127 344t351 124q62 0 126.5-21.5t120-58 95.5-68.5 76-68q36 36 76 68t95.5 68.5 120 58 126.5 21.5q224 0 351-124t127-344q0-221-229-450l-623-600q-18-18-44-18z"/><glyph unicode="" horiz-adv-x="1664" d="M1664 889q0-22-26-48l-363-354 86-500q1-7 1-20 0-21-10.5-35.5t-30.5-14.5q-19 0-40 12l-449 236-449-236q-22-12-40-12-21 0-31.5 14.5t-10.5 35.5q0 6 2 20l86 500-364 354q-25 27-25 48 0 37 56 46l502 73 225 455q19 41 49 41t49-41l225-455 502-73q56-9 56-46z"/><glyph unicode="" horiz-adv-x="1664" d="M1137 532l306 297-422 62-189 382-189-382-422-62 306-297-73-421 378 199 377-199zm527 357q0-22-26-48l-363-354 86-500q1-7 1-20 0-50-41-50-19 0-40 12l-449 236-449-236q-22-12-40-12-21 0-31.5 14.5t-10.5 35.5q0 6 2 20l86 500-364 354q-25 27-25 48 0 37 56 46l502 73 225 455q19 41 49 41t49-41l225-455 502-73q56-9 56-46z"/><glyph unicode="" horiz-adv-x="1408" d="M1408 131q0-120-73-189.5t-194-69.5h-874q-121 0-194 69.5t-73 189.5q0 53 3.5 103.5t14 109 26.5 108.5 43 97.5 62 81 85.5 53.5 111.5 20q9 0 42-21.5t74.5-48 108-48 133.5-21.5 133.5 21.5 108 48 74.5 48 42 21.5q61 0 111.5-20t85.5-53.5 62-81 43-97.5 26.5-108.5 14-109 3.5-103.5zm-320 893q0-159-112.5-271.5t-271.5-112.5-271.5 112.5-112.5 271.5 112.5 271.5 271.5 112.5 271.5-112.5 112.5-271.5z"/><glyph unicode="" horiz-adv-x="1920" d="M384-64v128q0 26-19 45t-45 19h-128q-26 0-45-19t-19-45v-128q0-26 19-45t45-19h128q26 0 45 19t19 45zm0 384v128q0 26-19 45t-45 19h-128q-26 0-45-19t-19-45v-128q0-26 19-45t45-19h128q26 0 45 19t19 45zm0 384v128q0 26-19 45t-45 19h-128q-26 0-45-19t-19-45v-128q0-26 19-45t45-19h128q26 0 45 19t19 45zm1024-768v512q0 26-19 45t-45 19h-768q-26 0-45-19t-19-45v-512q0-26 19-45t45-19h768q26 0 45 19t19 45zm-1024 1152v128q0 26-19 45t-45 19h-128q-26 0-45-19t-19-45v-128q0-26 19-45t45-19h128q26 0 45 19t19 45zm1408-1152v128q0 26-19 45t-45 19h-128q-26 0-45-19t-19-45v-128q0-26 19-45t45-19h128q26 0 45 19t19 45zm-384 768v512q0 26-19 45t-45 19h-768q-26 0-45-19t-19-45v-512q0-26 19-45t45-19h768q26 0 45 19t19 45zm384-384v128q0 26-19 45t-45 19h-128q-26 0-45-19t-19-45v-128q0-26 19-45t45-19h128q26 0 45 19t19 45zm0 384v128q0 26-19 45t-45 19h-128q-26 0-45-19t-19-45v-128q0-26 19-45t45-19h128q26 0 45 19t19 45zm0 384v128q0 26-19 45t-45 19h-128q-26 0-45-19t-19-45v-128q0-26 19-45t45-19h128q26 0 45 19t19 45zm128 160v-1344q0-66-47-113t-113-47h-1600q-66 0-113 47t-47 113v1344q0 66 47 113t113 47h1600q66 0 113-47t47-113z"/><glyph unicode="" horiz-adv-x="1664" d="M768 512v-384q0-52-38-90t-90-38h-512q-52 0-90 38t-38 90v384q0 52 38 90t90 38h512q52 0 90-38t38-90zm0 768v-384q0-52-38-90t-90-38h-512q-52 0-90 38t-38 90v384q0 52 38 90t90 38h512q52 0 90-38t38-90zm896-768v-384q0-52-38-90t-90-38h-512q-52 0-90 38t-38 90v384q0 52 38 90t90 38h512q52 0 90-38t38-90zm0 768v-384q0-52-38-90t-90-38h-512q-52 0-90 38t-38 90v384q0 52 38 90t90 38h512q52 0 90-38t38-90z"/><glyph unicode="" horiz-adv-x="1792" d="M512 288v-192q0-40-28-68t-68-28h-320q-40 0-68 28t-28 68v192q0 40 28 68t68 28h320q40 0 68-28t28-68zm0 512v-192q0-40-28-68t-68-28h-320q-40 0-68 28t-28 68v192q0 40 28 68t68 28h320q40 0 68-28t28-68zm640-512v-192q0-40-28-68t-68-28h-320q-40 0-68 28t-28 68v192q0 40 28 68t68 28h320q40 0 68-28t28-68zm-640 1024v-192q0-40-28-68t-68-28h-320q-40 0-68 28t-28 68v192q0 40 28 68t68 28h320q40 0 68-28t28-68zm640-512v-192q0-40-28-68t-68-28h-320q-40 0-68 28t-28 68v192q0 40 28 68t68 28h320q40 0 68-28t28-68zm640-512v-192q0-40-28-68t-68-28h-320q-40 0-68 28t-28 68v192q0 40 28 68t68 28h320q40 0 68-28t28-68zm-640 1024v-192q0-40-28-68t-68-28h-320q-40 0-68 28t-28 68v192q0 40 28 68t68 28h320q40 0 68-28t28-68zm640-512v-192q0-40-28-68t-68-28h-320q-40 0-68 28t-28 68v192q0 40 28 68t68 28h320q40 0 68-28t28-68zm0 512v-192q0-40-28-68t-68-28h-320q-40 0-68 28t-28 68v192q0 40 28 68t68 28h320q40 0 68-28t28-68z"/><glyph unicode="" horiz-adv-x="1792" d="M512 288v-192q0-40-28-68t-68-28h-320q-40 0-68 28t-28 68v192q0 40 28 68t68 28h320q40 0 68-28t28-68zm0 512v-192q0-40-28-68t-68-28h-320q-40 0-68 28t-28 68v192q0 40 28 68t68 28h320q40 0 68-28t28-68zm1280-512v-192q0-40-28-68t-68-28h-960q-40 0-68 28t-28 68v192q0 40 28 68t68 28h960q40 0 68-28t28-68zm-1280 1024v-192q0-40-28-68t-68-28h-320q-40 0-68 28t-28 68v192q0 40 28 68t68 28h320q40 0 68-28t28-68zm1280-512v-192q0-40-28-68t-68-28h-960q-40 0-68 28t-28 68v192q0 40 28 68t68 28h960q40 0 68-28t28-68zm0 512v-192q0-40-28-68t-68-28h-960q-40 0-68 28t-28 68v192q0 40 28 68t68 28h960q40 0 68-28t28-68z"/><glyph unicode="" horiz-adv-x="1792" d="M1671 970q0-40-28-68l-724-724-136-136q-28-28-68-28t-68 28l-136 136-362 362q-28 28-28 68t28 68l136 136q28 28 68 28t68-28l294-295 656 657q28 28 68 28t68-28l136-136q28-28 28-68z"/><glyph unicode="" horiz-adv-x="1408" d="M1298 214q0-40-28-68l-136-136q-28-28-68-28t-68 28l-294 294-294-294q-28-28-68-28t-68 28l-136 136q-28 28-28 68t28 68l294 294-294 294q-28 28-28 68t28 68l136 136q28 28 68 28t68-28l294-294 294 294q28 28 68 28t68-28l136-136q28-28 28-68t-28-68l-294-294 294-294q28-28 28-68z"/><glyph unicode="" horiz-adv-x="1664" d="M1024 736v-64q0-13-9.5-22.5t-22.5-9.5h-224v-224q0-13-9.5-22.5t-22.5-9.5h-64q-13 0-22.5 9.5t-9.5 22.5v224h-224q-13 0-22.5 9.5t-9.5 22.5v64q0 13 9.5 22.5t22.5 9.5h224v224q0 13 9.5 22.5t22.5 9.5h64q13 0 22.5-9.5t9.5-22.5v-224h224q13 0 22.5-9.5t9.5-22.5zm128-32q0 185-131.5 316.5t-316.5 131.5-316.5-131.5-131.5-316.5 131.5-316.5 316.5-131.5 316.5 131.5 131.5 316.5zm512-832q0-53-37.5-90.5t-90.5-37.5q-54 0-90 38l-343 342q-179-124-399-124-143 0-273.5 55.5t-225 150-150 225-55.5 273.5 55.5 273.5 150 225 225 150 273.5 55.5 273.5-55.5 225-150 150-225 55.5-273.5q0-220-124-399l343-343q37-37 37-90z"/><glyph unicode="" horiz-adv-x="1664" d="M1024 736v-64q0-13-9.5-22.5t-22.5-9.5h-576q-13 0-22.5 9.5t-9.5 22.5v64q0 13 9.5 22.5t22.5 9.5h576q13 0 22.5-9.5t9.5-22.5zm128-32q0 185-131.5 316.5t-316.5 131.5-316.5-131.5-131.5-316.5 131.5-316.5 316.5-131.5 316.5 131.5 131.5 316.5zm512-832q0-53-37.5-90.5t-90.5-37.5q-54 0-90 38l-343 342q-179-124-399-124-143 0-273.5 55.5t-225 150-150 225-55.5 273.5 55.5 273.5 150 225 225 150 273.5 55.5 273.5-55.5 225-150 150-225 55.5-273.5q0-220-124-399l343-343q37-37 37-90z"/><glyph unicode="" d="M1536 640q0-156-61-298t-164-245-245-164-298-61-298 61-245 164-164 245-61 298q0 182 80.5 343t226.5 270q43 32 95.5 25t83.5-50q32-42 24.5-94.5t-49.5-84.5q-98-74-151.5-181t-53.5-228q0-104 40.5-198.5t109.5-163.5 163.5-109.5 198.5-40.5 198.5 40.5 163.5 109.5 109.5 163.5 40.5 198.5q0 121-53.5 228t-151.5 181q-42 32-49.5 84.5t24.5 94.5q31 43 84 50t95-25q146-109 226.5-270t80.5-343zm-640 768v-640q0-52-38-90t-90-38-90 38-38 90v640q0 52 38 90t90 38 90-38 38-90z"/><glyph unicode="" horiz-adv-x="1792" d="M256 96v-192q0-14-9-23t-23-9h-192q-14 0-23 9t-9 23v192q0 14 9 23t23 9h192q14 0 23-9t9-23zm384 128v-320q0-14-9-23t-23-9h-192q-14 0-23 9t-9 23v320q0 14 9 23t23 9h192q14 0 23-9t9-23zm384 256v-576q0-14-9-23t-23-9h-192q-14 0-23 9t-9 23v576q0 14 9 23t23 9h192q14 0 23-9t9-23zm384 384v-960q0-14-9-23t-23-9h-192q-14 0-23 9t-9 23v960q0 14 9 23t23 9h192q14 0 23-9t9-23zm384 512v-1472q0-14-9-23t-23-9h-192q-14 0-23 9t-9 23v1472q0 14 9 23t23 9h192q14 0 23-9t9-23z"/><glyph unicode="" d="M1024 640q0 106-75 181t-181 75-181-75-75-181 75-181 181-75 181 75 75 181zm512 109v-222q0-12-8-23t-20-13l-185-28q-19-54-39-91 35-50 107-138 10-12 10-25t-9-23q-27-37-99-108t-94-71q-12 0-26 9l-138 108q-44-23-91-38-16-136-29-186-7-28-36-28h-222q-14 0-24.5 8.5t-11.5 21.5l-28 184q-49 16-90 37l-141-107q-10-9-25-9-14 0-25 11-126 114-165 168-7 10-7 23 0 12 8 23 15 21 51 66.5t54 70.5q-27 50-41 99l-183 27q-13 2-21 12.5t-8 23.5v222q0 12 8 23t19 13l186 28q14 46 39 92-40 57-107 138-10 12-10 24 0 10 9 23 26 36 98.5 107.5t94.5 71.5q13 0 26-10l138-107q44 23 91 38 16 136 29 186 7 28 36 28h222q14 0 24.5-8.5t11.5-21.5l28-184q49-16 90-37l142 107q9 9 24 9 13 0 25-10 129-119 165-170 7-8 7-22 0-12-8-23-15-21-51-66.5t-54-70.5q26-50 41-98l183-28q13-2 21-12.5t8-23.5z"/><glyph unicode="" horiz-adv-x="1408" d="M512 800v-576q0-14-9-23t-23-9h-64q-14 0-23 9t-9 23v576q0 14 9 23t23 9h64q14 0 23-9t9-23zm256 0v-576q0-14-9-23t-23-9h-64q-14 0-23 9t-9 23v576q0 14 9 23t23 9h64q14 0 23-9t9-23zm256 0v-576q0-14-9-23t-23-9h-64q-14 0-23 9t-9 23v576q0 14 9 23t23 9h64q14 0 23-9t9-23zm128-724v948h-896v-948q0-22 7-40.5t14.5-27 10.5-8.5h832q3 0 10.5 8.5t14.5 27 7 40.5zm-672 1076h448l-48 117q-7 9-17 11h-317q-10-2-17-11zm928-32v-64q0-14-9-23t-23-9h-96v-948q0-83-47-143.5t-113-60.5h-832q-66 0-113 58.5t-47 141.5v952h-96q-14 0-23 9t-9 23v64q0 14 9 23t23 9h309l70 167q15 37 54 63t79 26h320q40 0 79-26t54-63l70-167h309q14 0 23-9t9-23z"/><glyph unicode="" horiz-adv-x="1664" d="M1408 544v-480q0-26-19-45t-45-19h-384v384h-256v-384h-384q-26 0-45 19t-19 45v480q0 1 .5 3t.5 3l575 474 575-474q1-2 1-6zm223 69l-62-74q-8-9-21-11h-3q-13 0-21 7l-692 577-692-577q-12-8-24-7-13 2-21 11l-62 74q-8 10-7 23.5t11 21.5l719 599q32 26 76 26t76-26l244-204v195q0 14 9 23t23 9h192q14 0 23-9t9-23v-408l219-182q10-8 11-21.5t-7-23.5z"/><glyph unicode="" horiz-adv-x="1280" d="M128 0h1024v768h-416q-40 0-68 28t-28 68v416h-512v-1280zm640 896h376q-10 29-22 41l-313 313q-12 12-41 22v-376zm512-32v-896q0-40-28-68t-68-28h-1088q-40 0-68 28t-28 68v1344q0 40 28 68t68 28h640q40 0 88-20t76-48l312-312q28-28 48-76t20-88z"/><glyph unicode="" d="M896 992v-448q0-14-9-23t-23-9h-320q-14 0-23 9t-9 23v64q0 14 9 23t23 9h224v352q0 14 9 23t23 9h64q14 0 23-9t9-23zm416-352q0 148-73 273t-198 198-273 73-273-73-198-198-73-273 73-273 198-198 273-73 273 73 198 198 73 273zm224 0q0-209-103-385.5t-279.5-279.5-385.5-103-385.5 103-279.5 279.5-103 385.5 103 385.5 279.5 279.5 385.5 103 385.5-103 279.5-279.5 103-385.5z"/><glyph unicode="" horiz-adv-x="1920" d="M1111 540v4l-24 320q-1 13-11 22.5t-23 9.5h-186q-13 0-23-9.5t-11-22.5l-24-320v-4q-1-12 8-20t21-8h244q12 0 21 8t8 20zm759-467q0-73-46-73h-704q13 0 22 9.5t8 22.5l-20 256q-1 13-11 22.5t-23 9.5h-272q-13 0-23-9.5t-11-22.5l-20-256q-1-13 8-22.5t22-9.5h-704q-46 0-46 73 0 54 26 116l417 1044q8 19 26 33t38 14h339q-13 0-23-9.5t-11-22.5l-15-192q-1-14 8-23t22-9h166q13 0 22 9t8 23l-15 192q-1 13-11 22.5t-23 9.5h339q20 0 38-14t26-33l417-1044q26-62 26-116z"/><glyph unicode="" horiz-adv-x="1664" d="M1280 192q0 26-19 45t-45 19-45-19-19-45 19-45 45-19 45 19 19 45zm256 0q0 26-19 45t-45 19-45-19-19-45 19-45 45-19 45 19 19 45zm128 224v-320q0-40-28-68t-68-28h-1472q-40 0-68 28t-28 68v320q0 40 28 68t68 28h465l135-136q58-56 136-56t136 56l136 136h464q40 0 68-28t28-68zm-325 569q17-41-14-70l-448-448q-18-19-45-19t-45 19l-448 448q-31 29-14 70 17 39 59 39h256v448q0 26 19 45t45 19h256q26 0 45-19t19-45v-448h256q42 0 59-39z"/><glyph unicode="" d="M1120 608q0-12-10-24l-319-319q-11-9-23-9t-23 9l-320 320q-15 16-7 35 8 20 30 20h192v352q0 14 9 23t23 9h192q14 0 23-9t9-23v-352h192q14 0 23-9t9-23zm-352 576q-148 0-273-73t-198-198-73-273 73-273 198-198 273-73 273 73 198 198 73 273-73 273-198 198-273 73zm768-544q0-209-103-385.5t-279.5-279.5-385.5-103-385.5 103-279.5 279.5-103 385.5 103 385.5 279.5 279.5 385.5 103 385.5-103 279.5-279.5 103-385.5z"/><glyph unicode="" d="M1118 660q-8-20-30-20h-192v-352q0-14-9-23t-23-9h-192q-14 0-23 9t-9 23v352h-192q-14 0-23 9t-9 23q0 12 10 24l319 319q11 9 23 9t23-9l320-320q15-16 7-35zm-350 524q-148 0-273-73t-198-198-73-273 73-273 198-198 273-73 273 73 198 198 73 273-73 273-198 198-273 73zm768-544q0-209-103-385.5t-279.5-279.5-385.5-103-385.5 103-279.5 279.5-103 385.5 103 385.5 279.5 279.5 385.5 103 385.5-103 279.5-279.5 103-385.5z"/><glyph unicode="" d="M1023 576h316q-1 3-2.5 8t-2.5 8l-212 496h-708l-212-496q-1-2-2.5-8t-2.5-8h316l95-192h320zm513-30v-482q0-26-19-45t-45-19h-1408q-26 0-45 19t-19 45v482q0 62 25 123l238 552q10 25 36.5 42t52.5 17h832q26 0 52.5-17t36.5-42l238-552q25-61 25-123z"/><glyph unicode="" d="M1184 640q0-37-32-55l-544-320q-15-9-32-9-16 0-32 8-32 19-32 56v640q0 37 32 56 33 18 64-1l544-320q32-18 32-55zm128 0q0 148-73 273t-198 198-273 73-273-73-198-198-73-273 73-273 198-198 273-73 273 73 198 198 73 273zm224 0q0-209-103-385.5t-279.5-279.5-385.5-103-385.5 103-279.5 279.5-103 385.5 103 385.5 279.5 279.5 385.5 103 385.5-103 279.5-279.5 103-385.5z"/><glyph unicode="" d="M1536 1280v-448q0-26-19-45t-45-19h-448q-42 0-59 40-17 39 14 69l138 138q-148 137-349 137-104 0-198.5-40.5t-163.5-109.5-109.5-163.5-40.5-198.5 40.5-198.5 109.5-163.5 163.5-109.5 198.5-40.5q119 0 225 52t179 147q7 10 23 12 14 0 25-9l137-138q9-8 9.5-20.5t-7.5-22.5q-109-132-264-204.5t-327-72.5q-156 0-298 61t-245 164-164 245-61 298 61 298 164 245 245 164 298 61q147 0 284.5-55.5t244.5-156.5l130 129q29 31 70 14 39-17 39-59z"/><glyph unicode="" d="M1511 480q0-5-1-7-64-268-268-434.5t-478-166.5q-146 0-282.5 55t-243.5 157l-129-129q-19-19-45-19t-45 19-19 45v448q0 26 19 45t45 19h448q26 0 45-19t19-45-19-45l-137-137q71-66 161-102t187-36q134 0 250 65t186 179q11 17 53 117 8 23 30 23h192q13 0 22.5-9.5t9.5-22.5zm25 800v-448q0-26-19-45t-45-19h-448q-26 0-45 19t-19 45 19 45l138 138q-148 137-349 137-134 0-250-65t-186-179q-11-17-53-117-8-23-30-23h-199q-13 0-22.5 9.5t-9.5 22.5v7q65 268 270 434.5t480 166.5q146 0 284-55.5t245-156.5l130 129q19 19 45 19t45-19 19-45z"/><glyph unicode="" horiz-adv-x="1792" d="M384 352v-64q0-13-9.5-22.5t-22.5-9.5h-64q-13 0-22.5 9.5t-9.5 22.5v64q0 13 9.5 22.5t22.5 9.5h64q13 0 22.5-9.5t9.5-22.5zm0 256v-64q0-13-9.5-22.5t-22.5-9.5h-64q-13 0-22.5 9.5t-9.5 22.5v64q0 13 9.5 22.5t22.5 9.5h64q13 0 22.5-9.5t9.5-22.5zm0 256v-64q0-13-9.5-22.5t-22.5-9.5h-64q-13 0-22.5 9.5t-9.5 22.5v64q0 13 9.5 22.5t22.5 9.5h64q13 0 22.5-9.5t9.5-22.5zm1152-512v-64q0-13-9.5-22.5t-22.5-9.5h-960q-13 0-22.5 9.5t-9.5 22.5v64q0 13 9.5 22.5t22.5 9.5h960q13 0 22.5-9.5t9.5-22.5zm0 256v-64q0-13-9.5-22.5t-22.5-9.5h-960q-13 0-22.5 9.5t-9.5 22.5v64q0 13 9.5 22.5t22.5 9.5h960q13 0 22.5-9.5t9.5-22.5zm0 256v-64q0-13-9.5-22.5t-22.5-9.5h-960q-13 0-22.5 9.5t-9.5 22.5v64q0 13 9.5 22.5t22.5 9.5h960q13 0 22.5-9.5t9.5-22.5zm128-704v832q0 13-9.5 22.5t-22.5 9.5h-1472q-13 0-22.5-9.5t-9.5-22.5v-832q0-13 9.5-22.5t22.5-9.5h1472q13 0 22.5 9.5t9.5 22.5zm128 1088v-1088q0-66-47-113t-113-47h-1472q-66 0-113 47t-47 113v1088q0 66 47 113t113 47h1472q66 0 113-47t47-113z"/><glyph unicode="" horiz-adv-x="1152" d="M320 768h512v192q0 106-75 181t-181 75-181-75-75-181v-192zm832-96v-576q0-40-28-68t-68-28h-960q-40 0-68 28t-28 68v576q0 40 28 68t68 28h32v192q0 184 132 316t316 132 316-132 132-316v-192h32q40 0 68-28t28-68z"/><glyph unicode="" horiz-adv-x="1792" d="M320 1280q0-72-64-110v-1266q0-13-9.5-22.5t-22.5-9.5h-64q-13 0-22.5 9.5t-9.5 22.5v1266q-64 38-64 110 0 53 37.5 90.5t90.5 37.5 90.5-37.5 37.5-90.5zm1472-64v-763q0-25-12.5-38.5t-39.5-27.5q-215-116-369-116-61 0-123.5 22t-108.5 48-115.5 48-142.5 22q-192 0-464-146-17-9-33-9-26 0-45 19t-19 45v742q0 32 31 55 21 14 79 43 236 120 421 120 107 0 200-29t219-88q38-19 88-19 54 0 117.5 21t110 47 88 47 54.5 21q26 0 45-19t19-45z"/><glyph unicode="" horiz-adv-x="1664" d="M1664 650q0-166-60-314l-20-49-185-33q-22-83-90.5-136.5t-156.5-53.5v-32q0-14-9-23t-23-9h-64q-14 0-23 9t-9 23v576q0 14 9 23t23 9h64q14 0 23-9t9-23v-32q71 0 130-35.5t93-95.5l68 12q29 95 29 193 0 148-88 279t-236.5 209-315.5 78-315.5-78-236.5-209-88-279q0-98 29-193l68-12q34 60 93 95.5t130 35.5v32q0 14 9 23t23 9h64q14 0 23-9t9-23v-576q0-14-9-23t-23-9h-64q-14 0-23 9t-9 23v32q-88 0-156.5 53.5t-90.5 136.5l-185 33-20 49q-60 148-60 314 0 151 67 291t179 242.5 266 163.5 320 61 320-61 266-163.5 179-242.5 67-291z"/><glyph unicode="" horiz-adv-x="768" d="M768 1184v-1088q0-26-19-45t-45-19-45 19l-333 333h-262q-26 0-45 19t-19 45v384q0 26 19 45t45 19h262l333 333q19 19 45 19t45-19 19-45z"/><glyph unicode="" horiz-adv-x="1152" d="M768 1184v-1088q0-26-19-45t-45-19-45 19l-333 333h-262q-26 0-45 19t-19 45v384q0 26 19 45t45 19h262l333 333q19 19 45 19t45-19 19-45zm384-544q0-76-42.5-141.5t-112.5-93.5q-10-5-25-5-26 0-45 18.5t-19 45.5q0 21 12 35.5t29 25 34 23 29 35.5 12 57-12 57-29 35.5-34 23-29 25-12 35.5q0 27 19 45.5t45 18.5q15 0 25-5 70-27 112.5-93t42.5-142z"/><glyph unicode="" horiz-adv-x="1664" d="M768 1184v-1088q0-26-19-45t-45-19-45 19l-333 333h-262q-26 0-45 19t-19 45v384q0 26 19 45t45 19h262l333 333q19 19 45 19t45-19 19-45zm384-544q0-76-42.5-141.5t-112.5-93.5q-10-5-25-5-26 0-45 18.5t-19 45.5q0 21 12 35.5t29 25 34 23 29 35.5 12 57-12 57-29 35.5-34 23-29 25-12 35.5q0 27 19 45.5t45 18.5q15 0 25-5 70-27 112.5-93t42.5-142zm256 0q0-153-85-282.5t-225-188.5q-13-5-25-5-27 0-46 19t-19 45q0 39 39 59 56 29 76 44 74 54 115.5 135.5t41.5 173.5-41.5 173.5-115.5 135.5q-20 15-76 44-39 20-39 59 0 26 19 45t45 19q13 0 26-5 140-59 225-188.5t85-282.5zm256 0q0-230-127-422.5t-338-283.5q-13-5-26-5-26 0-45 19t-19 45q0 36 39 59 7 4 22.5 10.5t22.5 10.5q46 25 82 51 123 91 192 227t69 289-69 289-192 227q-36 26-82 51-7 4-22.5 10.5t-22.5 10.5q-39 23-39 59 0 26 19 45t45 19q13 0 26-5 211-91 338-283.5t127-422.5z"/><glyph unicode="" horiz-adv-x="1408" d="M384 384v-128h-128v128h128zm0 768v-128h-128v128h128zm768 0v-128h-128v128h128zm-1024-1023h384v383h-384v-383zm0 767h384v384h-384v-384zm768 0h384v384h-384v-384zm-256-256v-640h-640v640h640zm512-512v-128h-128v128h128zm256 0v-128h-128v128h128zm0 512v-384h-384v128h-128v-384h-128v640h384v-128h128v128h128zm-768 768v-640h-640v640h640zm768 0v-640h-640v640h640z"/><glyph unicode="" horiz-adv-x="1792" d="M63 0h-63v1408h63v-1408zm63 1h-32v1407h32v-1407zm94 0h-31v1407h31v-1407zm157 0h-31v1407h31v-1407zm157 0h-62v1407h62v-1407zm126 0h-31v1407h31v-1407zm63 0h-31v1407h31v-1407zm63 0h-31v1407h31v-1407zm157 0h-63v1407h63v-1407zm157 0h-63v1407h63v-1407zm126 0h-63v1407h63v-1407zm126 0h-63v1407h63v-1407zm94 0h-63v1407h63v-1407zm189 0h-94v1407h94v-1407zm63 0h-32v1407h32v-1407zm94-1h-63v1408h63v-1408z"/><glyph unicode="" d="M448 1088q0 53-37.5 90.5t-90.5 37.5-90.5-37.5-37.5-90.5 37.5-90.5 90.5-37.5 90.5 37.5 37.5 90.5zm1067-576q0-53-37-90l-491-492q-39-37-91-37-53 0-90 37l-715 716q-38 37-64.5 101t-26.5 117v416q0 52 38 90t90 38h416q53 0 117-26.5t102-64.5l715-714q37-39 37-91z"/><glyph unicode="" horiz-adv-x="1920" d="M448 1088q0 53-37.5 90.5t-90.5 37.5-90.5-37.5-37.5-90.5 37.5-90.5 90.5-37.5 90.5 37.5 37.5 90.5zm1067-576q0-53-37-90l-491-492q-39-37-91-37-53 0-90 37l-715 716q-38 37-64.5 101t-26.5 117v416q0 52 38 90t90 38h416q53 0 117-26.5t102-64.5l715-714q37-39 37-91zm384 0q0-53-37-90l-491-492q-39-37-91-37-36 0-59 14t-53 45l470 470q37 37 37 90 0 52-37 91l-715 714q-38 38-102 64.5t-117 26.5h224q53 0 117-26.5t102-64.5l715-714q37-39 37-91z"/><glyph unicode="" horiz-adv-x="1664" d="M1639 1058q40-57 18-129l-275-906q-19-64-76.5-107.5t-122.5-43.5h-923q-77 0-148.5 53.5t-99.5 131.5q-24 67-2 127 0 4 3 27t4 37q1 8-3 21.5t-3 19.5q2 11 8 21t16.5 23.5 16.5 23.5q23 38 45 91.5t30 91.5q3 10 .5 30t-.5 28q3 11 17 28t17 23q21 36 42 92t25 90q1 9-2.5 32t.5 28q4 13 22 30.5t22 22.5q19 26 42.5 84.5t27.5 96.5q1 8-3 25.5t-2 26.5q2 8 9 18t18 23 17 21q8 12 16.5 30.5t15 35 16 36 19.5 32 26.5 23.5 36 11.5 47.5-5.5l-1-3q38 9 51 9h761q74 0 114-56t18-130l-274-906q-36-119-71.5-153.5t-128.5-34.5h-869q-27 0-38-15-11-16-1-43 24-70 144-70h923q29 0 56 15.5t35 41.5l300 987q7 22 5 57 38-15 59-43zm-1064-2q-4-13 2-22.5t20-9.5h608q13 0 25.5 9.5t16.5 22.5l21 64q4 13-2 22.5t-20 9.5h-608q-13 0-25.5-9.5t-16.5-22.5zm-83-256q-4-13 2-22.5t20-9.5h608q13 0 25.5 9.5t16.5 22.5l21 64q4 13-2 22.5t-20 9.5h-608q-13 0-25.5-9.5t-16.5-22.5z"/><glyph unicode="" horiz-adv-x="1280" d="M1164 1408q23 0 44-9 33-13 52.5-41t19.5-62v-1289q0-34-19.5-62t-52.5-41q-19-8-44-8-48 0-83 32l-441 424-441-424q-36-33-83-33-23 0-44 9-33 13-52.5 41t-19.5 62v1289q0 34 19.5 62t52.5 41q21 9 44 9h1048z"/><glyph unicode="" horiz-adv-x="1664" d="M384 0h896v256h-896v-256zm0 640h896v384h-160q-40 0-68 28t-28 68v160h-640v-640zm1152-64q0 26-19 45t-45 19-45-19-19-45 19-45 45-19 45 19 19 45zm128 0v-416q0-13-9.5-22.5t-22.5-9.5h-224v-160q0-40-28-68t-68-28h-960q-40 0-68 28t-28 68v160h-224q-13 0-22.5 9.5t-9.5 22.5v416q0 79 56.5 135.5t135.5 56.5h64v544q0 40 28 68t68 28h672q40 0 88-20t76-48l152-152q28-28 48-76t20-88v-256h64q79 0 135.5-56.5t56.5-135.5z"/><glyph unicode="" horiz-adv-x="1920" d="M960 864q119 0 203.5-84.5t84.5-203.5-84.5-203.5-203.5-84.5-203.5 84.5-84.5 203.5 84.5 203.5 203.5 84.5zm704 416q106 0 181-75t75-181v-896q0-106-75-181t-181-75h-1408q-106 0-181 75t-75 181v896q0 106 75 181t181 75h224l51 136q19 49 69.5 84.5t103.5 35.5h512q53 0 103.5-35.5t69.5-84.5l51-136h224zm-704-1152q185 0 316.5 131.5t131.5 316.5-131.5 316.5-316.5 131.5-316.5-131.5-131.5-316.5 131.5-316.5 316.5-131.5z"/><glyph unicode="" horiz-adv-x="1664" d="M725 977l-170-450q73-1 153.5-2t119-1.5 52.5-.5l29 2q-32 95-92 241-53 132-92 211zm-704-1105h-21l2 79q22 7 80 18 89 16 110 31 20 16 48 68l237 616 280 724h128l11-21 205-480q103-242 124-297 39-102 96-235 26-58 65-164 24-67 65-149 22-49 35-57 22-19 69-23 47-6 103-27 6-39 6-57 0-14-1-26-80 0-192 8-93 8-189 8-79 0-135-2l-200-11-58-2q0 45 4 78l131 28q56 13 68 23 12 12 12 27t-6 32l-47 114-92 228-450 2q-29-65-104-274-23-64-23-84 0-31 17-43 26-21 103-32 3 0 13.5-2t30-5 40.5-6q1-28 1-58 0-17-2-27-66 0-349 20l-48-8q-81-14-167-14z"/><glyph unicode="" horiz-adv-x="1408" d="M555 15q76-32 140-32 131 0 216 41t122 113q38 70 38 181 0 114-41 180-58 94-141 126-80 32-247 32-74 0-101-10v-144l-1-173 3-270q0-15 12-44zm-14 746q43-7 109-7 175 0 264 65t89 224q0 112-85 187-84 75-255 75-52 0-130-13 0-44 2-77 7-122 6-279l-1-98q0-43 1-77zm-541-889l2 94q45 9 68 12 77 12 123 31 17 27 21 51 9 66 9 194l-2 497q-5 256-9 404-1 87-11 109-1 4-12 12-18 12-69 15-30 2-114 13l-4 83 260 6 380 13 45 1q5 0 14 .5t14 .5q1 0 21.5-.5t40.5-.5h74q88 0 191-27 43-13 96-39 57-29 102-76 44-47 65-104t21-122q0-70-32-128t-95-105q-26-20-150-77 177-41 267-146 92-106 92-236 0-76-29-161-21-62-71-117-66-72-140-108-73-36-203-60-82-15-198-11l-197 4q-84 2-298-11-33-3-272-11z"/><glyph unicode="" horiz-adv-x="1024" d="M0-126l17 85q4 1 77 20 76 19 116 39 29 37 41 101l27 139 56 268 12 64q8 44 17 84.5t16 67 12.5 46.5 9 30.5 3.5 11.5l29 157 16 63 22 135 8 50v38q-41 22-144 28-28 2-38 4l19 103 317-14q39-2 73-2 66 0 214 9 33 2 68 4.5t36 2.5q-2-19-6-38-7-29-13-51-55-19-109-31-64-16-101-31-12-31-24-88-9-44-13-82-44-199-66-306l-61-311-38-158-43-235-12-45q-2-7 1-27 64-15 119-21 36-5 66-10-1-29-7-58-7-31-9-41-18 0-23-1-24-2-42-2-9 0-28 3-19 4-145 17l-198 2q-41 1-174-11-74-7-98-9z"/><glyph unicode="" horiz-adv-x="1792" d="M81 1407l54-27q20-5 211-5h130l19 3 115 1 215-1h293l34-2q14-1 28 7t21 16l7 8 42 1q15 0 28-1v-104.5l1-131.5 1-100-1-58q0-32-4-51-39-15-68-18-25 43-54 128-8 24-15.5 62.5t-11.5 65.5-6 29q-13 15-27 19-7 2-42.5 2t-103.5-1-111-1q-34 0-67-5-10-97-8-136l1-152v-332l3-359-1-147q-1-46 11-85 49-25 89-32 2 0 18-5t44-13 43-12q30-8 50-18 5-45 5-50 0-10-3-29-14-1-34-1-110 0-187 10-72 8-238 8-88 0-233-14-48-4-70-4-2 22-2 26l-1 26v9q21 33 79 49 139 38 159 50 9 21 12 56 8 192 6 433l-5 428q-1 62-.5 118.5t.5 102.5-2 57-6 15q-6 5-14 6-38 6-148 6-43 0-100-13.5t-73-24.5q-13-9-22-33t-22-75-24-84q-6-19-19.5-32t-20.5-13q-44 27-56 44v383zm1663-1279q33 0 42-18.5t-11-44.5l-126-162q-20-26-49-26t-49 26l-126 162q-20 26-11 44.5t42 18.5h80v1024h-80q-33 0-42 18.5t11 44.5l126 162q20 26 49 26t49-26l126-162q20-26 11-44.5t-42-18.5h-80v-1024h80z"/><glyph unicode="" d="M81 1407l54-27q20-5 211-5h130l19 3 115 1 446-1h318l34-2q14-1 28 7t21 16l7 8 42 1q15 0 28-1v-104.5l1-131.5 1-100-1-58q0-32-4-51-39-15-68-18-25 43-54 128-8 24-15.5 62.5t-11.5 65.5-6 29q-13 15-27 19-7 2-58.5 2t-138.5-1-128-1q-94 0-127-5-10-97-8-136l1-152v52l3-359-1-147q-1-46 11-85 49-25 89-32 2 0 18-5t44-13 43-12q30-8 50-18 5-45 5-50 0-10-3-29-14-1-34-1-110 0-187 10-72 8-238 8-82 0-233-13-45-5-70-5-2 22-2 26l-1 26v9q21 33 79 49 139 38 159 50 9 21 12 56 6 137 6 433l-5 44q0 265-2 278-2 11-6 15-6 5-14 6-38 6-148 6-50 0-168.5-14t-132.5-24q-13-9-22-33t-22-75-24-84q-6-19-19.5-32t-20.5-13q-44 27-56 44v383zm1424-1294q26-20 26-49t-26-49l-162-126q-26-20-44.5-11t-18.5 42v80h-1024v-80q0-33-18.5-42t-44.5 11l-162 126q-26 20-26 49t26 49l162 126q26 20 44.5 11t18.5-42v-80h1024v80q0 33 18.5 42t44.5-11z"/><glyph unicode="" horiz-adv-x="1792" d="M1792 192v-128q0-26-19-45t-45-19h-1664q-26 0-45 19t-19 45v128q0 26 19 45t45 19h1664q26 0 45-19t19-45zm-384 384v-128q0-26-19-45t-45-19h-1280q-26 0-45 19t-19 45v128q0 26 19 45t45 19h1280q26 0 45-19t19-45zm256 384v-128q0-26-19-45t-45-19h-1536q-26 0-45 19t-19 45v128q0 26 19 45t45 19h1536q26 0 45-19t19-45zm-384 384v-128q0-26-19-45t-45-19h-1152q-26 0-45 19t-19 45v128q0 26 19 45t45 19h1152q26 0 45-19t19-45z"/><glyph unicode="" horiz-adv-x="1792" d="M1792 192v-128q0-26-19-45t-45-19h-1664q-26 0-45 19t-19 45v128q0 26 19 45t45 19h1664q26 0 45-19t19-45zm-384 384v-128q0-26-19-45t-45-19h-896q-26 0-45 19t-19 45v128q0 26 19 45t45 19h896q26 0 45-19t19-45zm256 384v-128q0-26-19-45t-45-19h-1408q-26 0-45 19t-19 45v128q0 26 19 45t45 19h1408q26 0 45-19t19-45zm-384 384v-128q0-26-19-45t-45-19h-640q-26 0-45 19t-19 45v128q0 26 19 45t45 19h640q26 0 45-19t19-45z"/><glyph unicode="" horiz-adv-x="1792" d="M1792 192v-128q0-26-19-45t-45-19h-1664q-26 0-45 19t-19 45v128q0 26 19 45t45 19h1664q26 0 45-19t19-45zm0 384v-128q0-26-19-45t-45-19h-1280q-26 0-45 19t-19 45v128q0 26 19 45t45 19h1280q26 0 45-19t19-45zm0 384v-128q0-26-19-45t-45-19h-1536q-26 0-45 19t-19 45v128q0 26 19 45t45 19h1536q26 0 45-19t19-45zm0 384v-128q0-26-19-45t-45-19h-1152q-26 0-45 19t-19 45v128q0 26 19 45t45 19h1152q26 0 45-19t19-45z"/><glyph unicode="" horiz-adv-x="1792" d="M1792 192v-128q0-26-19-45t-45-19h-1664q-26 0-45 19t-19 45v128q0 26 19 45t45 19h1664q26 0 45-19t19-45zm0 384v-128q0-26-19-45t-45-19h-1664q-26 0-45 19t-19 45v128q0 26 19 45t45 19h1664q26 0 45-19t19-45zm0 384v-128q0-26-19-45t-45-19h-1664q-26 0-45 19t-19 45v128q0 26 19 45t45 19h1664q26 0 45-19t19-45zm0 384v-128q0-26-19-45t-45-19h-1664q-26 0-45 19t-19 45v128q0 26 19 45t45 19h1664q26 0 45-19t19-45z"/><glyph unicode="" horiz-adv-x="1792" d="M256 224v-192q0-13-9.5-22.5t-22.5-9.5h-192q-13 0-22.5 9.5t-9.5 22.5v192q0 13 9.5 22.5t22.5 9.5h192q13 0 22.5-9.5t9.5-22.5zm0 384v-192q0-13-9.5-22.5t-22.5-9.5h-192q-13 0-22.5 9.5t-9.5 22.5v192q0 13 9.5 22.5t22.5 9.5h192q13 0 22.5-9.5t9.5-22.5zm0 384v-192q0-13-9.5-22.5t-22.5-9.5h-192q-13 0-22.5 9.5t-9.5 22.5v192q0 13 9.5 22.5t22.5 9.5h192q13 0 22.5-9.5t9.5-22.5zm1536-768v-192q0-13-9.5-22.5t-22.5-9.5h-1344q-13 0-22.5 9.5t-9.5 22.5v192q0 13 9.5 22.5t22.5 9.5h1344q13 0 22.5-9.5t9.5-22.5zm-1536 1152v-192q0-13-9.5-22.5t-22.5-9.5h-192q-13 0-22.5 9.5t-9.5 22.5v192q0 13 9.5 22.5t22.5 9.5h192q13 0 22.5-9.5t9.5-22.5zm1536-768v-192q0-13-9.5-22.5t-22.5-9.5h-1344q-13 0-22.5 9.5t-9.5 22.5v192q0 13 9.5 22.5t22.5 9.5h1344q13 0 22.5-9.5t9.5-22.5zm0 384v-192q0-13-9.5-22.5t-22.5-9.5h-1344q-13 0-22.5 9.5t-9.5 22.5v192q0 13 9.5 22.5t22.5 9.5h1344q13 0 22.5-9.5t9.5-22.5zm0 384v-192q0-13-9.5-22.5t-22.5-9.5h-1344q-13 0-22.5 9.5t-9.5 22.5v192q0 13 9.5 22.5t22.5 9.5h1344q13 0 22.5-9.5t9.5-22.5z"/><glyph unicode="" horiz-adv-x="1792" d="M384 992v-576q0-13-9.5-22.5t-22.5-9.5q-14 0-23 9l-288 288q-9 9-9 23t9 23l288 288q9 9 23 9 13 0 22.5-9.5t9.5-22.5zm1408-768v-192q0-13-9.5-22.5t-22.5-9.5h-1728q-13 0-22.5 9.5t-9.5 22.5v192q0 13 9.5 22.5t22.5 9.5h1728q13 0 22.5-9.5t9.5-22.5zm0 384v-192q0-13-9.5-22.5t-22.5-9.5h-1088q-13 0-22.5 9.5t-9.5 22.5v192q0 13 9.5 22.5t22.5 9.5h1088q13 0 22.5-9.5t9.5-22.5zm0 384v-192q0-13-9.5-22.5t-22.5-9.5h-1088q-13 0-22.5 9.5t-9.5 22.5v192q0 13 9.5 22.5t22.5 9.5h1088q13 0 22.5-9.5t9.5-22.5zm0 384v-192q0-13-9.5-22.5t-22.5-9.5h-1728q-13 0-22.5 9.5t-9.5 22.5v192q0 13 9.5 22.5t22.5 9.5h1728q13 0 22.5-9.5t9.5-22.5z"/><glyph unicode="" horiz-adv-x="1792" d="M352 704q0-14-9-23l-288-288q-9-9-23-9-13 0-22.5 9.5t-9.5 22.5v576q0 13 9.5 22.5t22.5 9.5q14 0 23-9l288-288q9-9 9-23zm1440-480v-192q0-13-9.5-22.5t-22.5-9.5h-1728q-13 0-22.5 9.5t-9.5 22.5v192q0 13 9.5 22.5t22.5 9.5h1728q13 0 22.5-9.5t9.5-22.5zm0 384v-192q0-13-9.5-22.5t-22.5-9.5h-1088q-13 0-22.5 9.5t-9.5 22.5v192q0 13 9.5 22.5t22.5 9.5h1088q13 0 22.5-9.5t9.5-22.5zm0 384v-192q0-13-9.5-22.5t-22.5-9.5h-1088q-13 0-22.5 9.5t-9.5 22.5v192q0 13 9.5 22.5t22.5 9.5h1088q13 0 22.5-9.5t9.5-22.5zm0 384v-192q0-13-9.5-22.5t-22.5-9.5h-1728q-13 0-22.5 9.5t-9.5 22.5v192q0 13 9.5 22.5t22.5 9.5h1728q13 0 22.5-9.5t9.5-22.5z"/><glyph unicode="" horiz-adv-x="1792" d="M1792 1184v-1088q0-42-39-59-13-5-25-5-27 0-45 19l-403 403v-166q0-119-84.5-203.5t-203.5-84.5h-704q-119 0-203.5 84.5t-84.5 203.5v704q0 119 84.5 203.5t203.5 84.5h704q119 0 203.5-84.5t84.5-203.5v-165l403 402q18 19 45 19 12 0 25-5 39-17 39-59z"/><glyph unicode="" horiz-adv-x="1920" d="M640 960q0-80-56-136t-136-56-136 56-56 136 56 136 136 56 136-56 56-136zm1024-384v-448h-1408v192l320 320 160-160 512 512zm96 704h-1600q-13 0-22.5-9.5t-9.5-22.5v-1216q0-13 9.5-22.5t22.5-9.5h1600q13 0 22.5 9.5t9.5 22.5v1216q0 13-9.5 22.5t-22.5 9.5zm160-32v-1216q0-66-47-113t-113-47h-1600q-66 0-113 47t-47 113v1216q0 66 47 113t113 47h1600q66 0 113-47t47-113z"/><glyph unicode="" d="M363 0l91 91-235 235-91-91v-107h128v-128h107zm523 928q0 22-22 22-10 0-17-7l-542-542q-7-7-7-17 0-22 22-22 10 0 17 7l542 542q7 7 7 17zm-54 192l416-416-832-832h-416v416zm683-96q0-53-37-90l-166-166-416 416 166 165q36 38 90 38 53 0 91-38l235-234q37-39 37-91z"/><glyph unicode="" horiz-adv-x="1024" d="M768 896q0 106-75 181t-181 75-181-75-75-181 75-181 181-75 181 75 75 181zm256 0q0-109-33-179l-364-774q-16-33-47.5-52t-67.5-19-67.5 19-46.5 52l-365 774q-33 70-33 179 0 212 150 362t362 150 362-150 150-362z"/><glyph unicode="" d="M768 96v1088q-148 0-273-73t-198-198-73-273 73-273 198-198 273-73zm768 544q0-209-103-385.5t-279.5-279.5-385.5-103-385.5 103-279.5 279.5-103 385.5 103 385.5 279.5 279.5 385.5 103 385.5-103 279.5-279.5 103-385.5z"/><glyph unicode="" horiz-adv-x="1024" d="M512 384q0 36-20 69-1 1-15.5 22.5t-25.5 38-25 44-21 50.5q-4 16-21 16t-21-16q-7-23-21-50.5t-25-44-25.5-38-15.5-22.5q-20-33-20-69 0-53 37.5-90.5t90.5-37.5 90.5 37.5 37.5 90.5zm512 128q0-212-150-362t-362-150-362 150-150 362q0 145 81 275 6 9 62.5 90.5t101 151 99.5 178 83 201.5q9 30 34 47t51 17 51.5-17 33.5-47q28-93 83-201.5t99.5-178 101-151 62.5-90.5q81-127 81-275z"/><glyph unicode="" horiz-adv-x="1792" d="M888 352l116 116-152 152-116-116v-56h96v-96h56zm440 720q-16 16-33-1l-350-350q-17-17-1-33t33 1l350 350q17 17 1 33zm80-594v-190q0-119-84.5-203.5t-203.5-84.5h-832q-119 0-203.5 84.5t-84.5 203.5v832q0 119 84.5 203.5t203.5 84.5h832q63 0 117-25 15-7 18-23 3-17-9-29l-49-49q-14-14-32-8-23 6-45 6h-832q-66 0-113-47t-47-113v-832q0-66 47-113t113-47h832q66 0 113 47t47 113v126q0 13 9 22l64 64q15 15 35 7t20-29zm-96 738l288-288-672-672h-288v288zm444-132l-92-92-288 288 92 92q28 28 68 28t68-28l152-152q28-28 28-68t-28-68z"/><glyph unicode="" horiz-adv-x="1664" d="M1408 547v-259q0-119-84.5-203.5t-203.5-84.5h-832q-119 0-203.5 84.5t-84.5 203.5v832q0 119 84.5 203.5t203.5 84.5h255q13 0 22.5-9.5t9.5-22.5q0-27-26-32-77-26-133-60-10-4-16-4h-112q-66 0-113-47t-47-113v-832q0-66 47-113t113-47h832q66 0 113 47t47 113v214q0 19 18 29 28 13 54 37 16 16 35 8 21-9 21-29zm237 496l-384-384q-18-19-45-19-12 0-25 5-39 17-39 59v192h-160q-323 0-438-131-119-137-74-473 3-23-20-34-8-2-12-2-16 0-26 13-10 14-21 31t-39.5 68.5-49.5 99.5-38.5 114-17.5 122q0 49 3.5 91t14 90 28 88 47 81.5 68.5 74 94.5 61.5 124.5 48.5 159.5 30.5 196.5 11h160v192q0 42 39 59 13 5 25 5 26 0 45-19l384-384q19-19 19-45t-19-45z"/><glyph unicode="" horiz-adv-x="1664" d="M1408 606v-318q0-119-84.5-203.5t-203.5-84.5h-832q-119 0-203.5 84.5t-84.5 203.5v832q0 119 84.5 203.5t203.5 84.5h832q63 0 117-25 15-7 18-23 3-17-9-29l-49-49q-10-10-23-10-3 0-9 2-23 6-45 6h-832q-66 0-113-47t-47-113v-832q0-66 47-113t113-47h832q66 0 113 47t47 113v254q0 13 9 22l64 64q10 10 23 10 6 0 12-3 20-8 20-29zm231 489l-814-814q-24-24-57-24t-57 24l-430 430q-24 24-24 57t24 57l110 110q24 24 57 24t57-24l263-263 647 647q24 24 57 24t57-24l110-110q24-24 24-57t-24-57z"/><glyph unicode="" horiz-adv-x="1792" d="M1792 640q0-26-19-45l-256-256q-19-19-45-19t-45 19-19 45v128h-384v-384h128q26 0 45-19t19-45-19-45l-256-256q-19-19-45-19t-45 19l-256 256q-19 19-19 45t19 45 45 19h128v384h-384v-128q0-26-19-45t-45-19-45 19l-256 256q-19 19-19 45t19 45l256 256q19 19 45 19t45-19 19-45v-128h384v384h-128q-26 0-45 19t-19 45 19 45l256 256q19 19 45 19t45-19l256-256q19-19 19-45t-19-45-45-19h-128v-384h384v128q0 26 19 45t45 19 45-19l256-256q19-19 19-45z"/><glyph unicode="" horiz-adv-x="1024" d="M979 1395q19 19 32 13t13-32v-1472q0-26-13-32t-32 13l-710 710q-9 9-13 19v-678q0-26-19-45t-45-19h-128q-26 0-45 19t-19 45v1408q0 26 19 45t45 19h128q26 0 45-19t19-45v-678q4 11 13 19z"/><glyph unicode="" horiz-adv-x="1792" d="M1747 1395q19 19 32 13t13-32v-1472q0-26-13-32t-32 13l-710 710q-9 9-13 19v-710q0-26-13-32t-32 13l-710 710q-9 9-13 19v-678q0-26-19-45t-45-19h-128q-26 0-45 19t-19 45v1408q0 26 19 45t45 19h128q26 0 45-19t19-45v-678q4 11 13 19l710 710q19 19 32 13t13-32v-710q4 11 13 19z"/><glyph unicode="" horiz-adv-x="1664" d="M1619 1395q19 19 32 13t13-32v-1472q0-26-13-32t-32 13l-710 710q-8 9-13 19v-710q0-26-13-32t-32 13l-710 710q-19 19-19 45t19 45l710 710q19 19 32 13t13-32v-710q5 11 13 19z"/><glyph unicode="" horiz-adv-x="1408" d="M1384 609l-1328-738q-23-13-39.5-3t-16.5 36v1472q0 26 16.5 36t39.5-3l1328-738q23-13 23-31t-23-31z"/><glyph unicode="" d="M1536 1344v-1408q0-26-19-45t-45-19h-512q-26 0-45 19t-19 45v1408q0 26 19 45t45 19h512q26 0 45-19t19-45zm-896 0v-1408q0-26-19-45t-45-19h-512q-26 0-45 19t-19 45v1408q0 26 19 45t45 19h512q26 0 45-19t19-45z"/><glyph unicode="" d="M1536 1344v-1408q0-26-19-45t-45-19h-1408q-26 0-45 19t-19 45v1408q0 26 19 45t45 19h1408q26 0 45-19t19-45z"/><glyph unicode="" horiz-adv-x="1664" d="M45-115q-19-19-32-13t-13 32v1472q0 26 13 32t32-13l710-710q8-8 13-19v710q0 26 13 32t32-13l710-710q19-19 19-45t-19-45l-710-710q-19-19-32-13t-13 32v710q-5-10-13-19z"/><glyph unicode="" horiz-adv-x="1792" d="M45-115q-19-19-32-13t-13 32v1472q0 26 13 32t32-13l710-710q8-8 13-19v710q0 26 13 32t32-13l710-710q8-8 13-19v678q0 26 19 45t45 19h128q26 0 45-19t19-45v-1408q0-26-19-45t-45-19h-128q-26 0-45 19t-19 45v678q-5-10-13-19l-710-710q-19-19-32-13t-13 32v710q-5-10-13-19z"/><glyph unicode="" horiz-adv-x="1024" d="M45-115q-19-19-32-13t-13 32v1472q0 26 13 32t32-13l710-710q8-8 13-19v678q0 26 19 45t45 19h128q26 0 45-19t19-45v-1408q0-26-19-45t-45-19h-128q-26 0-45 19t-19 45v678q-5-10-13-19z"/><glyph unicode="" horiz-adv-x="1538" d="M14 557l710 710q19 19 45 19t45-19l710-710q19-19 13-32t-32-13h-1472q-26 0-32 13t13 32zm1459-557h-1408q-26 0-45 19t-19 45v256q0 26 19 45t45 19h1408q26 0 45-19t19-45v-256q0-26-19-45t-45-19z"/><glyph unicode="" horiz-adv-x="1152" d="M742-37l-652 651q-37 37-37 90.5t37 90.5l652 651q37 37 90.5 37t90.5-37l75-75q37-37 37-90.5t-37-90.5l-486-486 486-485q37-38 37-91t-37-90l-75-75q-37-37-90.5-37t-90.5 37z"/><glyph unicode="" horiz-adv-x="1152" d="M1099 704q0-52-37-91l-652-651q-37-37-90-37t-90 37l-76 75q-37 39-37 91 0 53 37 90l486 486-486 485q-37 39-37 91 0 53 37 90l76 75q36 38 90 38t90-38l652-651q37-37 37-90z"/><glyph unicode="" d="M1216 576v128q0 26-19 45t-45 19h-256v256q0 26-19 45t-45 19h-128q-26 0-45-19t-19-45v-256h-256q-26 0-45-19t-19-45v-128q0-26 19-45t45-19h256v-256q0-26 19-45t45-19h128q26 0 45 19t19 45v256h256q26 0 45 19t19 45zm320 64q0-209-103-385.5t-279.5-279.5-385.5-103-385.5 103-279.5 279.5-103 385.5 103 385.5 279.5 279.5 385.5 103 385.5-103 279.5-279.5 103-385.5z"/><glyph unicode="" d="M1216 576v128q0 26-19 45t-45 19h-768q-26 0-45-19t-19-45v-128q0-26 19-45t45-19h768q26 0 45 19t19 45zm320 64q0-209-103-385.5t-279.5-279.5-385.5-103-385.5 103-279.5 279.5-103 385.5 103 385.5 279.5 279.5 385.5 103 385.5-103 279.5-279.5 103-385.5z"/><glyph unicode="" d="M1149 414q0 26-19 45l-181 181 181 181q19 19 19 45 0 27-19 46l-90 90q-19 19-46 19-26 0-45-19l-181-181-181 181q-19 19-45 19-27 0-46-19l-90-90q-19-19-19-46 0-26 19-45l181-181-181-181q-19-19-19-45 0-27 19-46l90-90q19-19 46-19 26 0 45 19l181 181 181-181q19-19 45-19 27 0 46 19l90 90q19 19 19 46zm387 226q0-209-103-385.5t-279.5-279.5-385.5-103-385.5 103-279.5 279.5-103 385.5 103 385.5 279.5 279.5 385.5 103 385.5-103 279.5-279.5 103-385.5z"/><glyph unicode="" d="M1284 802q0 28-18 46l-91 90q-19 19-45 19t-45-19l-408-407-226 226q-19 19-45 19t-45-19l-91-90q-18-18-18-46 0-27 18-45l362-362q19-19 45-19 27 0 46 19l543 543q18 18 18 45zm252-162q0-209-103-385.5t-279.5-279.5-385.5-103-385.5 103-279.5 279.5-103 385.5 103 385.5 279.5 279.5 385.5 103 385.5-103 279.5-279.5 103-385.5z"/><glyph unicode="" d="M896 160v192q0 14-9 23t-23 9h-192q-14 0-23-9t-9-23v-192q0-14 9-23t23-9h192q14 0 23 9t9 23zm256 672q0 88-55.5 163t-138.5 116-170 41q-243 0-371-213-15-24 8-42l132-100q7-6 19-6 16 0 25 12 53 68 86 92 34 24 86 24 48 0 85.5-26t37.5-59q0-38-20-61t-68-45q-63-28-115.5-86.5t-52.5-125.5v-36q0-14 9-23t23-9h192q14 0 23 9t9 23q0 19 21.5 49.5t54.5 49.5q32 18 49 28.5t46 35 44.5 48 28 60.5 12.5 81zm384-192q0-209-103-385.5t-279.5-279.5-385.5-103-385.5 103-279.5 279.5-103 385.5 103 385.5 279.5 279.5 385.5 103 385.5-103 279.5-279.5 103-385.5z"/><glyph unicode="" d="M1024 160v160q0 14-9 23t-23 9h-96v512q0 14-9 23t-23 9h-320q-14 0-23-9t-9-23v-160q0-14 9-23t23-9h96v-320h-96q-14 0-23-9t-9-23v-160q0-14 9-23t23-9h448q14 0 23 9t9 23zm-128 896v160q0 14-9 23t-23 9h-192q-14 0-23-9t-9-23v-160q0-14 9-23t23-9h192q14 0 23 9t9 23zm640-416q0-209-103-385.5t-279.5-279.5-385.5-103-385.5 103-279.5 279.5-103 385.5 103 385.5 279.5 279.5 385.5 103 385.5-103 279.5-279.5 103-385.5z"/><glyph unicode="" d="M1197 512h-109q-26 0-45 19t-19 45v128q0 26 19 45t45 19h109q-32 108-112.5 188.5t-188.5 112.5v-109q0-26-19-45t-45-19h-128q-26 0-45 19t-19 45v109q-108-32-188.5-112.5t-112.5-188.5h109q26 0 45-19t19-45v-128q0-26-19-45t-45-19h-109q32-108 112.5-188.5t188.5-112.5v109q0 26 19 45t45 19h128q26 0 45-19t19-45v-109q108 32 188.5 112.5t112.5 188.5zm339 192v-128q0-26-19-45t-45-19h-143q-37-161-154.5-278.5t-278.5-154.5v-143q0-26-19-45t-45-19h-128q-26 0-45 19t-19 45v143q-161 37-278.5 154.5t-154.5 278.5h-143q-26 0-45 19t-19 45v128q0 26 19 45t45 19h143q37 161 154.5 278.5t278.5 154.5v143q0 26 19 45t45 19h128q26 0 45-19t19-45v-143q161-37 278.5-154.5t154.5-278.5h143q26 0 45-19t19-45z"/><glyph unicode="" d="M1097 457l-146-146q-10-10-23-10t-23 10l-137 137-137-137q-10-10-23-10t-23 10l-146 146q-10 10-10 23t10 23l137 137-137 137q-10 10-10 23t10 23l146 146q10 10 23 10t23-10l137-137 137 137q10 10 23 10t23-10l146-146q10-10 10-23t-10-23l-137-137 137-137q10-10 10-23t-10-23zm215 183q0 148-73 273t-198 198-273 73-273-73-198-198-73-273 73-273 198-198 273-73 273 73 198 198 73 273zm224 0q0-209-103-385.5t-279.5-279.5-385.5-103-385.5 103-279.5 279.5-103 385.5 103 385.5 279.5 279.5 385.5 103 385.5-103 279.5-279.5 103-385.5z"/><glyph unicode="" d="M1171 723l-422-422q-19-19-45-19t-45 19l-294 294q-19 19-19 45t19 45l102 102q19 19 45 19t45-19l147-147 275 275q19 19 45 19t45-19l102-102q19-19 19-45t-19-45zm141-83q0 148-73 273t-198 198-273 73-273-73-198-198-73-273 73-273 198-198 273-73 273 73 198 198 73 273zm224 0q0-209-103-385.5t-279.5-279.5-385.5-103-385.5 103-279.5 279.5-103 385.5 103 385.5 279.5 279.5 385.5 103 385.5-103 279.5-279.5 103-385.5z"/><glyph unicode="" d="M1312 643q0 161-87 295l-754-753q137-89 297-89 111 0 211.5 43.5t173.5 116.5 116 174.5 43 212.5zm-999-299l755 754q-135 91-300 91-148 0-273-73t-198-199-73-274q0-162 89-299zm1223 299q0-157-61-300t-163.5-246-245-164-298.5-61-298.5 61-245 164-163.5 246-61 300 61 299.5 163.5 245.5 245 164 298.5 61 298.5-61 245-164 163.5-245.5 61-299.5z"/><glyph unicode="" d="M1536 640v-128q0-53-32.5-90.5t-84.5-37.5h-704l293-294q38-36 38-90t-38-90l-75-76q-37-37-90-37-52 0-91 37l-651 652q-37 37-37 90 0 52 37 91l651 650q38 38 91 38 52 0 90-38l75-74q38-38 38-91t-38-91l-293-293h704q52 0 84.5-37.5t32.5-90.5z"/><glyph unicode="" d="M1472 576q0-54-37-91l-651-651q-39-37-91-37-51 0-90 37l-75 75q-38 38-38 91t38 91l293 293h-704q-52 0-84.5 37.5t-32.5 90.5v128q0 53 32.5 90.5t84.5 37.5h704l-293 294q-38 36-38 90t38 90l75 75q38 38 90 38 53 0 91-38l651-651q37-35 37-90z"/><glyph unicode="" horiz-adv-x="1664" d="M1611 565q0-51-37-90l-75-75q-38-38-91-38-54 0-90 38l-294 293v-704q0-52-37.5-84.5t-90.5-32.5h-128q-53 0-90.5 32.5t-37.5 84.5v704l-294-293q-36-38-90-38t-90 38l-75 75q-38 38-38 90 0 53 38 91l651 651q35 37 90 37 54 0 91-37l651-651q37-39 37-91z"/><glyph unicode="" horiz-adv-x="1664" d="M1611 704q0-53-37-90l-651-652q-39-37-91-37-53 0-90 37l-651 652q-38 36-38 90 0 53 38 91l74 75q39 37 91 37 53 0 90-37l294-294v704q0 52 38 90t90 38h128q52 0 90-38t38-90v-704l294 294q37 37 90 37 52 0 91-37l75-75q37-39 37-91z"/><glyph unicode="" horiz-adv-x="1792" d="M1792 896q0-26-19-45l-512-512q-19-19-45-19t-45 19-19 45v256h-224q-98 0-175.5-6t-154-21.5-133-42.5-105.5-69.5-80-101-48.5-138.5-17.5-181q0-55 5-123 0-6 2.5-23.5t2.5-26.5q0-15-8.5-25t-23.5-10q-16 0-28 17-7 9-13 22t-13.5 30-10.5 24q-127 285-127 451 0 199 53 333 162 403 875 403h224v256q0 26 19 45t45 19 45-19l512-512q19-19 19-45z"/><glyph unicode="" d="M755 480q0-13-10-23l-332-332 144-144q19-19 19-45t-19-45-45-19h-448q-26 0-45 19t-19 45v448q0 26 19 45t45 19 45-19l144-144 332 332q10 10 23 10t23-10l114-114q10-10 10-23zm781 864v-448q0-26-19-45t-45-19-45 19l-144 144-332-332q-10-10-23-10t-23 10l-114 114q-10 10-10 23t10 23l332 332-144 144q-19 19-19 45t19 45 45 19h448q26 0 45-19t19-45z"/><glyph unicode="" d="M768 576v-448q0-26-19-45t-45-19-45 19l-144 144-332-332q-10-10-23-10t-23 10l-114 114q-10 10-10 23t10 23l332 332-144 144q-19 19-19 45t19 45 45 19h448q26 0 45-19t19-45zm755 672q0-13-10-23l-332-332 144-144q19-19 19-45t-19-45-45-19h-448q-26 0-45 19t-19 45v448q0 26 19 45t45 19 45-19l144-144 332 332q10 10 23 10t23-10l114-114q10-10 10-23z"/><glyph unicode="" horiz-adv-x="1408" d="M1408 800v-192q0-40-28-68t-68-28h-416v-416q0-40-28-68t-68-28h-192q-40 0-68 28t-28 68v416h-416q-40 0-68 28t-28 68v192q0 40 28 68t68 28h416v416q0 40 28 68t68 28h192q40 0 68-28t28-68v-416h416q40 0 68-28t28-68z"/><glyph unicode="" horiz-adv-x="1408" d="M1408 800v-192q0-40-28-68t-68-28h-1216q-40 0-68 28t-28 68v192q0 40 28 68t68 28h1216q40 0 68-28t28-68z"/><glyph unicode="" horiz-adv-x="1664" d="M1482 486q46-26 59.5-77.5t-12.5-97.5l-64-110q-26-46-77.5-59.5t-97.5 12.5l-266 153v-307q0-52-38-90t-90-38h-128q-52 0-90 38t-38 90v307l-266-153q-46-26-97.5-12.5t-77.5 59.5l-64 110q-26 46-12.5 97.5t59.5 77.5l266 154-266 154q-46 26-59.5 77.5t12.5 97.5l64 110q26 46 77.5 59.5t97.5-12.5l266-153v307q0 52 38 90t90 38h128q52 0 90-38t38-90v-307l266 153q46 26 97.5 12.5t77.5-59.5l64-110q26-46 12.5-97.5t-59.5-77.5l-266-154z"/><glyph unicode="" d="M768 1408q209 0 385.5-103t279.5-279.5 103-385.5-103-385.5-279.5-279.5-385.5-103-385.5 103-279.5 279.5-103 385.5 103 385.5 279.5 279.5 385.5 103zm128-1247v190q0 14-9 23.5t-22 9.5h-192q-13 0-23-10t-10-23v-190q0-13 10-23t23-10h192q13 0 22 9.5t9 23.5zm-2 344l18 621q0 12-10 18-10 8-24 8h-220q-14 0-24-8-10-6-10-18l17-621q0-10 10-17.5t24-7.5h185q14 0 23.5 7.5t10.5 17.5z"/><glyph unicode="" d="M928 180v716h-320v-716q0-25 18-38.5t46-13.5h192q28 0 46 13.5t18 38.5zm-456 844h195l-126 161q-26 31-69 31-40 0-68-28t-28-68 28-68 68-28zm688 96q0 40-28 68t-68 28q-43 0-69-31l-125-161h194q40 0 68 28t28 68zm376-256v-320q0-14-9-23t-23-9h-96v-416q0-40-28-68t-68-28h-1088q-40 0-68 28t-28 68v416h-96q-14 0-23 9t-9 23v320q0 14 9 23t23 9h440q-93 0-158.5 65.5t-65.5 158.5 65.5 158.5 158.5 65.5q107 0 168-77l128-165 128 165q61 77 168 77 93 0 158.5-65.5t65.5-158.5-65.5-158.5-158.5-65.5h440q14 0 23-9t9-23z"/><glyph unicode="" horiz-adv-x="1792" d="M1280 832q0 26-19 45t-45 19q-172 0-318-49.5t-259.5-134-235.5-219.5q-19-21-19-45 0-26 19-45t45-19q24 0 45 19 27 24 74 71t67 66q137 124 268.5 176t313.5 52q26 0 45 19t19 45zm512 198q0-95-20-193-46-224-184.5-383t-357.5-268q-214-108-438-108-148 0-286 47-15 5-88 42t-96 37q-16 0-39.5-32t-45-70-52.5-70-60-32q-30 0-51 11t-31 24-27 42q-2 4-6 11t-5.5 10-3 9.5-1.5 13.5q0 35 31 73.5t68 65.5 68 56 31 48q0 4-14 38t-16 44q-9 51-9 104 0 115 43.5 220t119 184.5 170.5 139 204 95.5q55 18 145 25.5t179.5 9 178.5 6 163.5 24 113.5 56.5l29.5 29.5 29.5 28 27 20 36.5 16 43.5 4.5q39 0 70.5-46t47.5-112 24-124 8-96z"/><glyph unicode="" horiz-adv-x="1408" d="M1408-160v-64q0-13-9.5-22.5t-22.5-9.5h-1344q-13 0-22.5 9.5t-9.5 22.5v64q0 13 9.5 22.5t22.5 9.5h1344q13 0 22.5-9.5t9.5-22.5zm-256 1056q0-78-24.5-144t-64-112.5-87.5-88-96-77.5-87.5-72-64-81.5-24.5-96.5q0-96 67-224l-4 1 1-1q-90 41-160 83t-138.5 100-113.5 122.5-72.5 150.5-27.5 184q0 78 24.5 144t64 112.5 87.5 88 96 77.5 87.5 72 64 81.5 24.5 96.5q0 94-66 224l3-1-1 1q90-41 160-83t138.5-100 113.5-122.5 72.5-150.5 27.5-184z"/><glyph unicode="" horiz-adv-x="1792" d="M1664 576q-152 236-381 353 61-104 61-225 0-185-131.5-316.5t-316.5-131.5-316.5 131.5-131.5 316.5q0 121 61 225-229-117-381-353 133-205 333.5-326.5t434.5-121.5 434.5 121.5 333.5 326.5zm-720 384q0 20-14 34t-34 14q-125 0-214.5-89.5t-89.5-214.5q0-20 14-34t34-14 34 14 14 34q0 86 61 147t147 61q20 0 34 14t14 34zm848-384q0-34-20-69-140-230-376.5-368.5t-499.5-138.5-499.5 139-376.5 368q-20 35-20 69t20 69q140 229 376.5 368t499.5 139 499.5-139 376.5-368q20-35 20-69z"/><glyph unicode="" horiz-adv-x="1792" d="M555 201l78 141q-87 63-136 159t-49 203q0 121 61 225-229-117-381-353 167-258 427-375zm389 759q0 20-14 34t-34 14q-125 0-214.5-89.5t-89.5-214.5q0-20 14-34t34-14 34 14 14 34q0 86 61 147t147 61q20 0 34 14t14 34zm363 191q0-7-1-9-105-188-315-566t-316-567l-49-89q-10-16-28-16-12 0-134 70-16 10-16 28 0 12 44 87-143 65-263.5 173t-208.5 245q-20 31-20 69t20 69q153 235 380 371t496 136q89 0 180-17l54 97q10 16 28 16 5 0 18-6t31-15.5 33-18.5 31.5-18.5 19.5-11.5q16-10 16-27zm37-447q0-139-79-253.5t-209-164.5l280 502q8-45 8-84zm448-128q0-35-20-69-39-64-109-145-150-172-347.5-267t-419.5-95l74 132q212 18 392.5 137t301.5 307q-115 179-282 294l63 112q95-64 182.5-153t144.5-184q20-34 20-69z"/><glyph unicode="" horiz-adv-x="1792" d="M1024 161v190q0 14-9.5 23.5t-22.5 9.5h-192q-13 0-22.5-9.5t-9.5-23.5v-190q0-14 9.5-23.5t22.5-9.5h192q13 0 22.5 9.5t9.5 23.5zm-2 374l18 459q0 12-10 19-13 11-24 11h-220q-11 0-24-11-10-7-10-21l17-457q0-10 10-16.5t24-6.5h185q14 0 23.5 6.5t10.5 16.5zm-14 934l768-1408q35-63-2-126-17-29-46.5-46t-63.5-17h-1536q-34 0-63.5 17t-46.5 46q-37 63-2 126l768 1408q17 31 47 49t65 18 65-18 47-49z"/><glyph unicode="" horiz-adv-x="1408" d="M1376 1376q44-52 12-148t-108-172l-161-161 160-696q5-19-12-33l-128-96q-7-6-19-6-4 0-7 1-15 3-21 16l-279 508-259-259 53-194q5-17-8-31l-96-96q-9-9-23-9h-2q-15 2-24 13l-189 252-252 189q-11 7-13 23-1 13 9 25l96 97q9 9 23 9 6 0 8-1l194-53 259 259-508 279q-14 8-17 24-2 16 9 27l128 128q14 13 30 8l665-159 160 160q76 76 172 108t148-12z"/><glyph unicode="" horiz-adv-x="1664" d="M128-128h288v288h-288v-288zm352 0h320v288h-320v-288zm-352 352h288v320h-288v-320zm352 0h320v320h-320v-320zm-352 384h288v288h-288v-288zm736-736h320v288h-320v-288zm-384 736h320v288h-320v-288zm768-736h288v288h-288v-288zm-384 352h320v320h-320v-320zm-352 864v288q0 13-9.5 22.5t-22.5 9.5h-64q-13 0-22.5-9.5t-9.5-22.5v-288q0-13 9.5-22.5t22.5-9.5h64q13 0 22.5 9.5t9.5 22.5zm736-864h288v320h-288v-320zm-384 384h320v288h-320v-288zm384 0h288v288h-288v-288zm32 480v288q0 13-9.5 22.5t-22.5 9.5h-64q-13 0-22.5-9.5t-9.5-22.5v-288q0-13 9.5-22.5t22.5-9.5h64q13 0 22.5 9.5t9.5 22.5zm384 64v-1280q0-52-38-90t-90-38h-1408q-52 0-90 38t-38 90v1280q0 52 38 90t90 38h128v96q0 66 47 113t113 47h64q66 0 113-47t47-113v-96h384v96q0 66 47 113t113 47h64q66 0 113-47t47-113v-96h128q52 0 90-38t38-90z"/><glyph unicode="" horiz-adv-x="1792" d="M666 1055q-60-92-137-273-22 45-37 72.5t-40.5 63.5-51 56.5-63 35-81.5 14.5h-224q-14 0-23 9t-9 23v192q0 14 9 23t23 9h224q250 0 410-225zm1126-799q0-14-9-23l-320-320q-9-9-23-9-13 0-22.5 9.5t-9.5 22.5v192q-32 0-85-.5t-81-1-73 1-71 5-64 10.5-63 18.5-58 28.5-59 40-55 53.5-56 69.5q59 93 136 273 22-45 37-72.5t40.5-63.5 51-56.5 63-35 81.5-14.5h256v192q0 14 9 23t23 9q12 0 24-10l319-319q9-9 9-23zm0 896q0-14-9-23l-320-320q-9-9-23-9-13 0-22.5 9.5t-9.5 22.5v192h-256q-48 0-87-15t-69-45-51-61.5-45-77.5q-32-62-78-171-29-66-49.5-111t-54-105-64-100-74-83-90-68.5-106.5-42-128-16.5h-224q-14 0-23 9t-9 23v192q0 14 9 23t23 9h224q48 0 87 15t69 45 51 61.5 45 77.5q32 62 78 171 29 66 49.5 111t54 105 64 100 74 83 90 68.5 106.5 42 128 16.5h256v192q0 14 9 23t23 9q12 0 24-10l319-319q9-9 9-23z"/><glyph unicode="" horiz-adv-x="1792" d="M1792 640q0-174-120-321.5t-326-233-450-85.5q-70 0-145 8-198-175-460-242-49-14-114-22-17-2-30.5 9t-17.5 29v1q-3 4-.5 12t2 10 4.5 9.5l6 9 7 8.5 8 9q7 8 31 34.5t34.5 38 31 39.5 32.5 51 27 59 26 76q-157 89-247.5 220t-90.5 281q0 130 71 248.5t191 204.5 286 136.5 348 50.5q244 0 450-85.5t326-233 120-321.5z"/><glyph unicode="" d="M1536 704v-128q0-201-98.5-362t-274-251.5-395.5-90.5-395.5 90.5-274 251.5-98.5 362v128q0 26 19 45t45 19h384q26 0 45-19t19-45v-128q0-52 23.5-90t53.5-57 71-30 64-13 44-2 44 2 64 13 71 30 53.5 57 23.5 90v128q0 26 19 45t45 19h384q26 0 45-19t19-45zm-1024 640v-384q0-26-19-45t-45-19h-384q-26 0-45 19t-19 45v384q0 26 19 45t45 19h384q26 0 45-19t19-45zm1024 0v-384q0-26-19-45t-45-19h-384q-26 0-45 19t-19 45v384q0 26 19 45t45 19h384q26 0 45-19t19-45z"/><glyph unicode="" horiz-adv-x="1664" d="M1611 320q0-53-37-90l-75-75q-38-38-91-38-54 0-90 38l-486 485-486-485q-36-38-90-38t-90 38l-75 75q-38 36-38 90 0 53 38 91l651 651q37 37 90 37 52 0 91-37l650-651q38-38 38-91z"/><glyph unicode="" horiz-adv-x="1664" d="M1611 832q0-53-37-90l-651-651q-38-38-91-38-54 0-90 38l-651 651q-38 36-38 90 0 53 38 91l74 75q39 37 91 37 53 0 90-37l486-486 486 486q37 37 90 37 52 0 91-37l75-75q37-39 37-91z"/><glyph unicode="" horiz-adv-x="1920" d="M1280 32q0-13-9.5-22.5t-22.5-9.5h-960q-8 0-13.5 2t-9 7-5.5 8-3 11.5-1 11.5v600h-192q-26 0-45 19t-19 45q0 24 15 41l320 384q19 22 49 22t49-22l320-384q15-17 15-41 0-26-19-45t-45-19h-192v-384h576q16 0 25-11l160-192q7-11 7-21zm640 416q0-24-15-41l-320-384q-20-23-49-23t-49 23l-320 384q-15 17-15 41 0 26 19 45t45 19h192v384h-576q-16 0-25 12l-160 192q-7 9-7 20 0 13 9.5 22.5t22.5 9.5h960q8 0 13.5-2t9-7 5.5-8 3-11.5 1-11.5v-600h192q26 0 45-19t19-45z"/><glyph unicode="" horiz-adv-x="1664" d="M640 0q0-53-37.5-90.5t-90.5-37.5-90.5 37.5-37.5 90.5 37.5 90.5 90.5 37.5 90.5-37.5 37.5-90.5zm896 0q0-53-37.5-90.5t-90.5-37.5-90.5 37.5-37.5 90.5 37.5 90.5 90.5 37.5 90.5-37.5 37.5-90.5zm128 1088v-512q0-24-16-42.5t-41-21.5l-1044-122q1-7 4.5-21.5t6-26.5 2.5-22q0-16-24-64h920q26 0 45-19t19-45-19-45-45-19h-1024q-26 0-45 19t-19 45q0 14 11 39.5t29.5 59.5 20.5 38l-177 823h-204q-26 0-45 19t-19 45 19 45 45 19h256q16 0 28.5-6.5t20-15.5 13-24.5 7.5-26.5 5.5-29.5 4.5-25.5h1201q26 0 45-19t19-45z"/><glyph unicode="" horiz-adv-x="1664" d="M1664 928v-704q0-92-66-158t-158-66h-1216q-92 0-158 66t-66 158v960q0 92 66 158t158 66h320q92 0 158-66t66-158v-32h672q92 0 158-66t66-158z"/><glyph unicode="" horiz-adv-x="1920" d="M1879 584q0-31-31-66l-336-396q-43-51-120.5-86.5t-143.5-35.5h-1088q-34 0-60.5 13t-26.5 43q0 31 31 66l336 396q43 51 120.5 86.5t143.5 35.5h1088q34 0 60.5-13t26.5-43zm-343 344v-160h-832q-94 0-197-47.5t-164-119.5l-337-396-5-6q0 4-.5 12.5t-.5 12.5v960q0 92 66 158t158 66h320q92 0 158-66t66-158v-32h544q92 0 158-66t66-158z"/><glyph unicode="" horiz-adv-x="768" d="M704 1216q0-26-19-45t-45-19h-128v-1024h128q26 0 45-19t19-45-19-45l-256-256q-19-19-45-19t-45 19l-256 256q-19 19-19 45t19 45 45 19h128v1024h-128q-26 0-45 19t-19 45 19 45l256 256q19 19 45 19t45-19l256-256q19-19 19-45z"/><glyph unicode="" horiz-adv-x="1792" d="M1792 640q0-26-19-45l-256-256q-19-19-45-19t-45 19-19 45v128h-1024v-128q0-26-19-45t-45-19-45 19l-256 256q-19 19-19 45t19 45l256 256q19 19 45 19t45-19 19-45v-128h1024v128q0 26 19 45t45 19 45-19l256-256q19-19 19-45z"/><glyph unicode="" horiz-adv-x="1920" d="M512 512v-384h-256v384h256zm384 512v-896h-256v896h256zm384-256v-640h-256v640h256zm384 384v-1024h-256v1024h256zm128-1120v1216q0 13-9.5 22.5t-22.5 9.5h-1600q-13 0-22.5-9.5t-9.5-22.5v-1216q0-13 9.5-22.5t22.5-9.5h1600q13 0 22.5 9.5t9.5 22.5zm128 1216v-1216q0-66-47-113t-113-47h-1600q-66 0-113 47t-47 113v1216q0 66 47 113t113 47h1600q66 0 113-47t47-113z"/><glyph unicode="" d="M1280 926q-56-25-121-34 68 40 93 117-65-38-134-51-61 66-153 66-87 0-148.5-61.5t-61.5-148.5q0-29 5-48-129 7-242 65t-192 155q-29-50-29-106 0-114 91-175-47 1-100 26v-2q0-75 50-133.5t123-72.5q-29-8-51-8-13 0-39 4 21-63 74.5-104t121.5-42q-116-90-261-90-26 0-50 3 148-94 322-94 112 0 210 35.5t168 95 120.5 137 75 162 24.5 168.5q0 18-1 27 63 45 105 109zm256 194v-960q0-119-84.5-203.5t-203.5-84.5h-960q-119 0-203.5 84.5t-84.5 203.5v960q0 119 84.5 203.5t203.5 84.5h960q119 0 203.5-84.5t84.5-203.5z"/><glyph unicode="" d="M1307 618l23 219h-198v109q0 49 15.5 68.5t71.5 19.5h110v219h-175q-152 0-218-72t-66-213v-131h-131v-219h131v-635h262v635h175zm229 502v-960q0-119-84.5-203.5t-203.5-84.5h-960q-119 0-203.5 84.5t-84.5 203.5v960q0 119 84.5 203.5t203.5 84.5h960q119 0 203.5-84.5t84.5-203.5z"/><glyph unicode="" horiz-adv-x="1792" d="M928 704q0 14-9 23t-23 9q-66 0-113-47t-47-113q0-14 9-23t23-9 23 9 9 23q0 40 28 68t68 28q14 0 23 9t9 23zm224-130q0-106-75-181t-181-75-181 75-75 181 75 181 181 75 181-75 75-181zm-1024-574h1536v128h-1536v-128zm1152 574q0 159-112.5 271.5t-271.5 112.5-271.5-112.5-112.5-271.5 112.5-271.5 271.5-112.5 271.5 112.5 112.5 271.5zm-1024 642h384v128h-384v-128zm-128-192h1536v256h-828l-64-128h-644v-128zm1664 256v-1280q0-53-37.5-90.5t-90.5-37.5h-1536q-53 0-90.5 37.5t-37.5 90.5v1280q0 53 37.5 90.5t90.5 37.5h1536q53 0 90.5-37.5t37.5-90.5z"/><glyph unicode="" horiz-adv-x="1792" d="M832 1024q0 80-56 136t-136 56-136-56-56-136q0-42 19-83-41 19-83 19-80 0-136-56t-56-136 56-136 136-56 136 56 56 136q0 42-19 83 41-19 83-19 80 0 136 56t56 136zm851-704q0-17-49-66t-66-49q-9 0-28.5 16t-36.5 33-38.5 40-24.5 26l-96-96 220-220q28-28 28-68 0-42-39-81t-81-39q-40 0-68 28l-671 671q-176-131-365-131-163 0-265.5 102.5t-102.5 265.5q0 160 95 313t248 248 313 95q163 0 265.5-102.5t102.5-265.5q0-189-131-365l355-355 96 96q-3 3-26 24.5t-40 38.5-33 36.5-16 28.5q0 17 49 66t66 49q13 0 23-10 6-6 46-44.5t82-79.5 86.5-86 73-78 28.5-41z"/><glyph unicode="" horiz-adv-x="1920" d="M896 640q0 106-75 181t-181 75-181-75-75-181 75-181 181-75 181 75 75 181zm768-512q0 52-38 90t-90 38-90-38-38-90q0-53 37.5-90.5t90.5-37.5 90.5 37.5 37.5 90.5zm0 1024q0 52-38 90t-90 38-90-38-38-90q0-53 37.5-90.5t90.5-37.5 90.5 37.5 37.5 90.5zm-384-421v-185q0-10-7-19.5t-16-10.5l-155-24q-11-35-32-76 34-48 90-115 7-10 7-20 0-12-7-19-23-30-82.5-89.5t-78.5-59.5q-11 0-21 7l-115 90q-37-19-77-31-11-108-23-155-7-24-30-24h-186q-11 0-20 7.5t-10 17.5l-23 153q-34 10-75 31l-118-89q-7-7-20-7-11 0-21 8-144 133-144 160 0 9 7 19 10 14 41 53t47 61q-23 44-35 82l-152 24q-10 1-17 9.5t-7 19.5v185q0 10 7 19.5t16 10.5l155 24q11 35 32 76-34 48-90 115-7 11-7 20 0 12 7 20 22 30 82 89t79 59q11 0 21-7l115-90q34 18 77 32 11 108 23 154 7 24 30 24h186q11 0 20-7.5t10-17.5l23-153q34-10 75-31l118 89q8 7 20 7 11 0 21-8 144-133 144-160 0-9-7-19-12-16-42-54t-45-60q23-48 34-82l152-23q10-2 17-10.5t7-19.5zm640-533v-140q0-16-149-31-12-27-30-52 51-113 51-138 0-4-4-7-122-71-124-71-8 0-46 47t-52 68q-20-2-30-2t-30 2q-14-21-52-68t-46-47q-2 0-124 71-4 3-4 7 0 25 51 138-18 25-30 52-149 15-149 31v140q0 16 149 31 13 29 30 52-51 113-51 138 0 4 4 7 4 2 35 20t59 34 30 16q8 0 46-46.5t52-67.5q20 2 30 2t30-2q51 71 92 112l6 2q4 0 124-70 4-3 4-7 0-25-51-138 17-23 30-52 149-15 149-31zm0 1024v-140q0-16-149-31-12-27-30-52 51-113 51-138 0-4-4-7-122-71-124-71-8 0-46 47t-52 68q-20-2-30-2t-30 2q-14-21-52-68t-46-47q-2 0-124 71-4 3-4 7 0 25 51 138-18 25-30 52-149 15-149 31v140q0 16 149 31 13 29 30 52-51 113-51 138 0 4 4 7 4 2 35 20t59 34 30 16q8 0 46-46.5t52-67.5q20 2 30 2t30-2q51 71 92 112l6 2q4 0 124-70 4-3 4-7 0-25-51-138 17-23 30-52 149-15 149-31z"/><glyph unicode="" horiz-adv-x="1792" d="M1408 768q0-139-94-257t-256.5-186.5-353.5-68.5q-86 0-176 16-124-88-278-128-36-9-86-16h-3q-11 0-20.5 8t-11.5 21q-1 3-1 6.5t.5 6.5 2 6l2.5 5 3.5 5.5 4 5 4.5 5 4 4.5q5 6 23 25t26 29.5 22.5 29 25 38.5 20.5 44q-124 72-195 177t-71 224q0 139 94 257t256.5 186.5 353.5 68.5 353.5-68.5 256.5-186.5 94-257zm384-256q0-120-71-224.5t-195-176.5q10-24 20.5-44t25-38.5 22.5-29 26-29.5 23-25q1-1 4-4.5t4.5-5 4-5 3.5-5.5l2.5-5 2-6 .5-6.5-1-6.5q-3-14-13-22t-22-7q-50 7-86 16-154 40-278 128-90-16-176-16-271 0-472 132 58-4 88-4 161 0 309 45t264 129q125 92 192 212t67 254q0 77-23 152 129-71 204-178t75-230z"/><glyph unicode="" d="M256 192q0 26-19 45t-45 19-45-19-19-45 19-45 45-19 45 19 19 45zm1152 576q0 51-39 89.5t-89 38.5h-352q0 58 48 159.5t48 160.5q0 98-32 145t-128 47q-26-26-38-85t-30.5-125.5-59.5-109.5q-22-23-77-91-4-5-23-30t-31.5-41-34.5-42.5-40-44-38.5-35.5-40-27-35.5-9h-32v-640h32q13 0 31.5-3t33-6.5 38-11 35-11.5 35.5-12.5 29-10.5q211-73 342-73h121q192 0 192 167 0 26-5 56 30 16 47.5 52.5t17.5 73.5-18 69q53 50 53 119 0 25-10 55.5t-25 47.5q32 1 53.5 47t21.5 81zm128 1q0-89-49-163 9-33 9-69 0-77-38-144 3-21 3-43 0-101-60-178 1-139-85-219.5t-227-80.5h-129q-96 0-189.5 22.5t-216.5 65.5q-116 40-138 40h-288q-53 0-90.5 37.5t-37.5 90.5v640q0 53 37.5 90.5t90.5 37.5h274q36 24 137 155 58 75 107 128 24 25 35.5 85.5t30.5 126.5 62 108q39 37 90 37 84 0 151-32.5t102-101.5 35-186q0-93-48-192h176q104 0 180-76t76-179z"/><glyph unicode="" d="M256 1088q0 26-19 45t-45 19-45-19-19-45 19-45 45-19 45 19 19 45zm1152-576q0 35-21.5 81t-53.5 47q15 17 25 47.5t10 55.5q0 69-53 119 18 32 18 69t-17.5 73.5-47.5 52.5q5 30 5 56 0 85-49 126t-136 41h-128q-131 0-342-73-5-2-29-10.5t-35.5-12.5-35-11.5-38-11-33-6.5-31.5-3h-32v-640h32q16 0 35.5-9t40-27 38.5-35.5 40-44 34.5-42.5 31.5-41 23-30q55-68 77-91 41-43 59.5-109.5t30.5-125.5 38-85q96 0 128 47t32 145q0 59-48 160.5t-48 159.5h352q50 0 89 38.5t39 89.5zm128-1q0-103-76-179t-180-76h-176q48-99 48-192 0-118-35-186-35-69-102-101.5t-151-32.5q-51 0-90 37-34 33-54 82t-25.5 90.5-17.5 84.5-31 64q-48 50-107 127-101 131-137 155h-274q-53 0-90.5 37.5t-37.5 90.5v640q0 53 37.5 90.5t90.5 37.5h288q22 0 138 40 128 44 223 66t200 22h112q140 0 226.5-79t85.5-216v-5q60-77 60-178 0-22-3-43 38-67 38-144 0-36-9-69 49-74 49-163z"/><glyph unicode="" horiz-adv-x="896" d="M832 1504v-1339l-449-236q-22-12-40-12-21 0-31.5 14.5t-10.5 35.5q0 6 2 20l86 500-364 354q-25 27-25 48 0 37 56 46l502 73 225 455q19 41 49 41z"/><glyph unicode="" horiz-adv-x="1792" d="M1664 940q0 81-21.5 143t-55 98.5-81.5 59.5-94 31-98 8-112-25.5-110.5-64-86.5-72-60-61.5q-18-22-49-22t-49 22q-24 28-60 61.5t-86.5 72-110.5 64-112 25.5-98-8-94-31-81.5-59.5-55-98.5-21.5-143q0-168 187-355l581-560 580 559q188 188 188 356zm128 0q0-221-229-450l-623-600q-18-18-44-18t-44 18l-624 602q-10 8-27.5 26t-55.5 65.5-68 97.5-53.5 121-23.5 138q0 220 127 344t351 124q62 0 126.5-21.5t120-58 95.5-68.5 76-68q36 36 76 68t95.5 68.5 120 58 126.5 21.5q224 0 351-124t127-344z"/><glyph unicode="" horiz-adv-x="1664" d="M640 96q0-4 1-20t.5-26.5-3-23.5-10-19.5-20.5-6.5h-320q-119 0-203.5 84.5t-84.5 203.5v704q0 119 84.5 203.5t203.5 84.5h320q13 0 22.5-9.5t9.5-22.5q0-4 1-20t.5-26.5-3-23.5-10-19.5-20.5-6.5h-320q-66 0-113-47t-47-113v-704q0-66 47-113t113-47h312l11.5-1 11.5-3 8-5.5 7-9 2-13.5zm928 544q0-26-19-45l-544-544q-19-19-45-19t-45 19-19 45v288h-448q-26 0-45 19t-19 45v384q0 26 19 45t45 19h448v288q0 26 19 45t45 19 45-19l544-544q19-19 19-45z"/><glyph unicode="" d="M237 122h231v694h-231v-694zm246 908q-1 52-36 86t-93 34-94.5-34-36.5-86q0-51 35.5-85.5t92.5-34.5h1q59 0 95 34.5t36 85.5zm585-908h231v398q0 154-73 233t-193 79q-136 0-209-117h2v101h-231q3-66 0-694h231v388q0 38 7 56 15 35 45 59.5t74 24.5q116 0 116-157v-371zm468 998v-960q0-119-84.5-203.5t-203.5-84.5h-960q-119 0-203.5 84.5t-84.5 203.5v960q0 119 84.5 203.5t203.5 84.5h960q119 0 203.5-84.5t84.5-203.5z"/><glyph unicode="" horiz-adv-x="1152" d="M480 672v448q0 14-9 23t-23 9-23-9-9-23v-448q0-14 9-23t23-9 23 9 9 23zm672-352q0-26-19-45t-45-19h-429l-51-483q-2-12-10.5-20.5t-20.5-8.5h-1q-27 0-32 27l-76 485h-404q-26 0-45 19t-19 45q0 123 78.5 221.5t177.5 98.5v512q-52 0-90 38t-38 90 38 90 90 38h640q52 0 90-38t38-90-38-90-90-38v-512q99 0 177.5-98.5t78.5-221.5z"/><glyph unicode="" horiz-adv-x="1792" d="M1408 608v-320q0-119-84.5-203.5t-203.5-84.5h-832q-119 0-203.5 84.5t-84.5 203.5v832q0 119 84.5 203.5t203.5 84.5h704q14 0 23-9t9-23v-64q0-14-9-23t-23-9h-704q-66 0-113-47t-47-113v-832q0-66 47-113t113-47h832q66 0 113 47t47 113v320q0 14 9 23t23 9h64q14 0 23-9t9-23zm384 864v-512q0-26-19-45t-45-19-45 19l-176 176-652-652q-10-10-23-10t-23 10l-114 114q-10 10-10 23t10 23l652 652-176 176q-19 19-19 45t19 45 45 19h512q26 0 45-19t19-45z"/><glyph unicode="" d="M1184 640q0-26-19-45l-544-544q-19-19-45-19t-45 19-19 45v288h-448q-26 0-45 19t-19 45v384q0 26 19 45t45 19h448v288q0 26 19 45t45 19 45-19l544-544q19-19 19-45zm352 352v-704q0-119-84.5-203.5t-203.5-84.5h-320q-13 0-22.5 9.5t-9.5 22.5q0 4-1 20t-.5 26.5 3 23.5 10 19.5 20.5 6.5h320q66 0 113 47t47 113v704q0 66-47 113t-113 47h-312l-11.5 1-11.5 3-8 5.5-7 9-2 13.5q0 4-1 20t-.5 26.5 3 23.5 10 19.5 20.5 6.5h320q119 0 203.5-84.5t84.5-203.5z"/><glyph unicode="" horiz-adv-x="1664" d="M458 653q-74 162-74 371h-256v-96q0-78 94.5-162t235.5-113zm1078 275v96h-256q0-209-74-371 141 29 235.5 113t94.5 162zm128 128v-128q0-71-41.5-143t-112-130-173-97.5-215.5-44.5q-42-54-95-95-38-34-52.5-72.5t-14.5-89.5q0-54 30.5-91t97.5-37q75 0 133.5-45.5t58.5-114.5v-64q0-14-9-23t-23-9h-832q-14 0-23 9t-9 23v64q0 69 58.5 114.5t133.5 45.5q67 0 97.5 37t30.5 91q0 51-14.5 89.5t-52.5 72.5q-53 41-95 95-113 5-215.5 44.5t-173 97.5-112 130-41.5 143v128q0 40 28 68t68 28h288v96q0 66 47 113t113 47h576q66 0 113-47t47-113v-96h288q40 0 68-28t28-68z"/><glyph unicode="" d="M394 184q-8-9-20 3-13 11-4 19 8 9 20-3 12-11 4-19zm-42 61q9-12 0-19-8-6-17 7t0 18q9 7 17-6zm-61 60q-5-7-13-2-10 5-7 12 3 5 13 2 10-5 7-12zm31-34q-6-7-16 3-9 11-2 16 6 6 16-3 9-11 2-16zm129-112q-4-12-19-6-17 4-13 15t19 7q16-5 13-16zm63-5q0-11-16-11-17-2-17 11 0 11 16 11 17 2 17-11zm58 10q2-10-14-14t-18 8 14 15q16 2 18-9zm964 956v-960q0-119-84.5-203.5t-203.5-84.5h-224q-16 0-24.5 1t-19.5 5-16 14.5-5 27.5v239q0 97-52 142 57 6 102.5 18t94 39 81 66.5 53 105 20.5 150.5q0 121-79 206 37 91-8 204-28 9-81-11t-92-44l-38-24q-93 26-192 26t-192-26q-16 11-42.5 27t-83.5 38.5-86 13.5q-44-113-7-204-79-85-79-206 0-85 20.5-150t52.5-105 80.5-67 94-39 102.5-18q-40-36-49-103-21-10-45-15t-57-5-65.5 21.5-55.5 62.5q-19 32-48.5 52t-49.5 24l-20 3q-21 0-29-4.5t-5-11.5 9-14 13-12l7-5q22-10 43.5-38t31.5-51l10-23q13-38 44-61.5t67-30 69.5-7 55.5 3.5l23 4q0-38 .5-103t.5-68q0-22-11-33.5t-22-13-33-1.5h-224q-119 0-203.5 84.5t-84.5 203.5v960q0 119 84.5 203.5t203.5 84.5h960q119 0 203.5-84.5t84.5-203.5z"/><glyph unicode="" horiz-adv-x="1664" d="M1280 64q0 26-19 45t-45 19-45-19-19-45 19-45 45-19 45 19 19 45zm256 0q0 26-19 45t-45 19-45-19-19-45 19-45 45-19 45 19 19 45zm128 224v-320q0-40-28-68t-68-28h-1472q-40 0-68 28t-28 68v320q0 40 28 68t68 28h427q21-56 70.5-92t110.5-36h256q61 0 110.5 36t70.5 92h427q40 0 68-28t28-68zm-325 648q-17-40-59-40h-256v-448q0-26-19-45t-45-19h-256q-26 0-45 19t-19 45v448h-256q-42 0-59 40-17 39 14 69l448 448q18 19 45 19t45-19l448-448q31-30 14-69z"/><glyph unicode="" d="M1407 710q0 44-7 113.5t-18 96.5q-12 30-17 44t-9 36.5-4 48.5q0 23 5 68.5t5 67.5q0 37-10 55-4 1-13 1-19 0-58-4.5t-59-4.5q-60 0-176 24t-175 24q-43 0-94.5-11.5t-85-23.5-89.5-34q-137-54-202-103-96-73-159.5-189.5t-88-236-24.5-248.5q0-40 12.5-120t12.5-121q0-23-11-66.5t-11-65.5 12-36.5 34-14.5q24 0 72.5 11t73.5 11q57 0 169.5-15.5t169.5-15.5q181 0 284 36 129 45 235.5 152.5t166 245.5 59.5 275zm128 2q0-165-70-327.5t-196-288-281-180.5q-124-44-326-44-57 0-170 14.5t-169 14.5q-24 0-72.5-14.5t-73.5-14.5q-73 0-123.5 55.5t-50.5 128.5q0 24 11 68t11 67q0 40-12.5 120.5t-12.5 121.5q0 111 18 217.5t54.5 209.5 100.5 194 150 156q78 59 232 120 194 78 316 78 60 0 175.5-24t173.5-24q19 0 57 5t58 5q81 0 118-50.5t37-134.5q0-23-5-68t-5-68q0-10 1-18.5t3-17 4-13.5 6.5-16 6.5-17q16-40 25-118.5t9-136.5z"/><glyph unicode="" horiz-adv-x="1408" d="M1408 296q0-27-10-70.5t-21-68.5q-21-50-122-106-94-51-186-51-27 0-52.5 3.5t-57.5 12.5-47.5 14.5-55.5 20.5-49 18q-98 35-175 83-128 79-264.5 215.5t-215.5 264.5q-48 77-83 175-3 9-18 49t-20.5 55.5-14.5 47.5-12.5 57.5-3.5 52.5q0 92 51 186 56 101 106 122 25 11 68.5 21t70.5 10q14 0 21-3 18-6 53-76 11-19 30-54t35-63.5 31-53.5q3-4 17.5-25t21.5-35.5 7-28.5q0-20-28.5-50t-62-55-62-53-28.5-46q0-9 5-22.5t8.5-20.5 14-24 11.5-19q76-137 174-235t235-174q2-1 19-11.5t24-14 20.5-8.5 22.5-5q18 0 46 28.5t53 62 55 62 50 28.5q14 0 28.5-7t35.5-21.5 25-17.5q25-15 53.5-31t63.5-35 54-30q70-35 76-53 3-7 3-21z"/><glyph unicode="" horiz-adv-x="1408" d="M1120 1280h-832q-66 0-113-47t-47-113v-832q0-66 47-113t113-47h832q66 0 113 47t47 113v832q0 66-47 113t-113 47zm288-160v-832q0-119-84.5-203.5t-203.5-84.5h-832q-119 0-203.5 84.5t-84.5 203.5v832q0 119 84.5 203.5t203.5 84.5h832q119 0 203.5-84.5t84.5-203.5z"/><glyph unicode="" horiz-adv-x="1280" d="M1152 1280h-1024v-1242l423 406 89 85 89-85 423-406v1242zm12 128q23 0 44-9 33-13 52.5-41t19.5-62v-1289q0-34-19.5-62t-52.5-41q-19-8-44-8-48 0-83 32l-441 424-441-424q-36-33-83-33-23 0-44 9-33 13-52.5 41t-19.5 62v1289q0 34 19.5 62t52.5 41q21 9 44 9h1048z"/><glyph unicode="" d="M1280 343q0 11-2 16-3 8-38.5 29.5t-88.5 49.5l-53 29q-5 3-19 13t-25 15-21 5q-18 0-47-32.5t-57-65.5-44-33q-7 0-16.5 3.5t-15.5 6.5-17 9.5-14 8.5q-99 55-170.5 126.5t-126.5 170.5q-2 3-8.5 14t-9.5 17-6.5 15.5-3.5 16.5q0 13 20.5 33.5t45 38.5 45 39.5 20.5 36.5q0 10-5 21t-15 25-13 19q-3 6-15 28.5t-25 45.5-26.5 47.5-25 40.5-16.5 18-16 2q-48 0-101-22-46-21-80-94.5t-34-130.5q0-16 2.5-34t5-30.5 9-33 10-29.5 12.5-33 11-30q60-164 216.5-320.5t320.5-216.5q6-2 30-11t33-12.5 29.5-10 33-9 30.5-5 34-2.5q57 0 130.5 34t94.5 80q22 53 22 101zm256 777v-960q0-119-84.5-203.5t-203.5-84.5h-960q-119 0-203.5 84.5t-84.5 203.5v960q0 119 84.5 203.5t203.5 84.5h960q119 0 203.5-84.5t84.5-203.5z"/><glyph unicode="" horiz-adv-x="1664" d="M1620 1128q-67-98-162-167 1-14 1-42 0-130-38-259.5t-115.5-248.5-184.5-210.5-258-146-323-54.5q-271 0-496 145 35-4 78-4 225 0 401 138-105 2-188 64.5t-114 159.5q33-5 61-5 43 0 85 11-112 23-185.5 111.5t-73.5 205.5v4q68-38 146-41-66 44-105 115t-39 154q0 88 44 163 121-149 294.5-238.5t371.5-99.5q-8 38-8 74 0 134 94.5 228.5t228.5 94.5q140 0 236-102 109 21 205 78-37-115-142-178 93 10 186 50z"/><glyph unicode="" horiz-adv-x="768" d="M511 980h257l-30-284h-227v-824h-341v824h-170v284h170v171q0 182 86 275.5t283 93.5h227v-284h-142q-39 0-62.5-6.5t-34-23.5-13.5-34.5-3-49.5v-142z"/><glyph unicode="" d="M1536 640q0-251-146.5-451.5t-378.5-277.5q-27-5-39.5 7t-12.5 30v211q0 97-52 142 57 6 102.5 18t94 39 81 66.5 53 105 20.5 150.5q0 121-79 206 37 91-8 204-28 9-81-11t-92-44l-38-24q-93 26-192 26t-192-26q-16 11-42.5 27t-83.5 38.5-86 13.5q-44-113-7-204-79-85-79-206 0-85 20.5-150t52.5-105 80.5-67 94-39 102.5-18q-40-36-49-103-21-10-45-15t-57-5-65.5 21.5-55.5 62.5q-19 32-48.5 52t-49.5 24l-20 3q-21 0-29-4.5t-5-11.5 9-14 13-12l7-5q22-10 43.5-38t31.5-51l10-23q13-38 44-61.5t67-30 69.5-7 55.5 3.5l23 4q0-38 .5-89t.5-54q0-18-13-30t-40-7q-232 77-378.5 277.5t-146.5 451.5q0 209 103 385.5t279.5 279.5 385.5 103 385.5-103 279.5-279.5 103-385.5z"/><glyph unicode="" horiz-adv-x="1664" d="M1664 960v-256q0-26-19-45t-45-19h-64q-26 0-45 19t-19 45v256q0 106-75 181t-181 75-181-75-75-181v-192h96q40 0 68-28t28-68v-576q0-40-28-68t-68-28h-960q-40 0-68 28t-28 68v576q0 40 28 68t68 28h672v192q0 185 131.5 316.5t316.5 131.5 316.5-131.5 131.5-316.5z"/><glyph unicode="" horiz-adv-x="1920" d="M1760 1408q66 0 113-47t47-113v-1216q0-66-47-113t-113-47h-1600q-66 0-113 47t-47 113v1216q0 66 47 113t113 47h1600zm-1600-128q-13 0-22.5-9.5t-9.5-22.5v-224h1664v224q0 13-9.5 22.5t-22.5 9.5h-1600zm1600-1280q13 0 22.5 9.5t9.5 22.5v608h-1664v-608q0-13 9.5-22.5t22.5-9.5h1600zm-1504 128v128h256v-128h-256zm384 0v128h384v-128h-384z"/><glyph unicode="" horiz-adv-x="1408" d="M384 192q0-80-56-136t-136-56-136 56-56 136 56 136 136 56 136-56 56-136zm512-123q2-28-17-48-18-21-47-21h-135q-25 0-43 16.5t-20 41.5q-22 229-184.5 391.5t-391.5 184.5q-25 2-41.5 20t-16.5 43v135q0 29 21 47 17 17 43 17h5q160-13 306-80.5t259-181.5q114-113 181.5-259t80.5-306zm512-2q2-27-18-47-18-20-46-20h-143q-26 0-44.5 17.5t-19.5 42.5q-12 215-101 408.5t-231.5 336-336 231.5-408.5 102q-25 1-42.5 19.5t-17.5 43.5v143q0 28 20 46 18 18 44 18h3q262-13 501.5-120t425.5-294q187-186 294-425.5t120-501.5z"/><glyph unicode="" d="M1040 320q0-33-23.5-56.5t-56.5-23.5-56.5 23.5-23.5 56.5 23.5 56.5 56.5 23.5 56.5-23.5 23.5-56.5zm256 0q0-33-23.5-56.5t-56.5-23.5-56.5 23.5-23.5 56.5 23.5 56.5 56.5 23.5 56.5-23.5 23.5-56.5zm112-160v320q0 13-9.5 22.5t-22.5 9.5h-1216q-13 0-22.5-9.5t-9.5-22.5v-320q0-13 9.5-22.5t22.5-9.5h1216q13 0 22.5 9.5t9.5 22.5zm-1230 480h1180l-157 482q-4 13-16 21.5t-26 8.5h-782q-14 0-26-8.5t-16-21.5zm1358-160v-320q0-66-47-113t-113-47h-1216q-66 0-113 47t-47 113v320q0 25 16 75l197 606q17 53 63 86t101 33h782q55 0 101-33t63-86l197-606q16-50 16-75z"/><glyph unicode="" horiz-adv-x="1792" d="M1664 896q53 0 90.5-37.5t37.5-90.5-37.5-90.5-90.5-37.5v-384q0-52-38-90t-90-38q-417 347-812 380-58-19-91-66t-31-100.5 40-92.5q-20-33-23-65.5t6-58 33.5-55 48-50 61.5-50.5q-29-58-111.5-83t-168.5-11.5-132 55.5q-7 23-29.5 87.5t-32 94.5-23 89-15 101 3.5 98.5 22 110.5h-122q-66 0-113 47t-47 113v192q0 66 47 113t113 47h480q435 0 896 384 52 0 90-38t38-90v-384zm-128-604v954q-394-302-768-343v-270q377-42 768-341z"/><glyph unicode="" horiz-adv-x="1664" d="M848-160q0 16-16 16-59 0-101.5 42.5t-42.5 101.5q0 16-16 16t-16-16q0-73 51.5-124.5t124.5-51.5q16 0 16 16zm-665 288h1298q-164 181-246.5 411.5t-82.5 484.5q0 256-320 256t-320-256q0-254-82.5-484.5t-246.5-411.5zm1481 0q0-52-38-90t-90-38h-448q0-106-75-181t-181-75-181 75-75 181h-448q-52 0-90 38t-38 90q190 161 287 397.5t97 498.5q0 165 96 262t264 117q-8 18-8 37 0 40 28 68t68 28 68-28 28-68q0-19-8-37 168-20 264-117t96-262q0-262 97-498.5t287-397.5z"/><glyph unicode="" d="M1376 640l138-135q30-28 20-70-12-41-52-51l-188-48 53-186q12-41-19-70-29-31-70-19l-186 53-48-188q-10-40-51-52-12-2-19-2-31 0-51 22l-135 138-135-138q-28-30-70-20-41 11-51 52l-48 188-186-53q-41-12-70 19-31 29-19 70l53 186-188 48q-40 10-52 51-10 42 20 70l138 135-138 135q-30 28-20 70 12 41 52 51l188 48-53 186q-12 41 19 70 29 31 70 19l186-53 48 188q10 41 51 51 41 12 70-19l135-139 135 139q29 30 70 19 41-10 51-51l48-188 186 53q41 12 70-19 31-29 19-70l-53-186 188-48q40-10 52-51 10-42-20-70z"/><glyph unicode="" horiz-adv-x="1792" d="M256 192q0 26-19 45t-45 19-45-19-19-45 19-45 45-19 45 19 19 45zm1408 576q0 51-39 89.5t-89 38.5h-576q0 20 15 48.5t33 55 33 68 15 84.5q0 67-44.5 97.5t-115.5 30.5q-24 0-90-139-24-44-37-65-40-64-112-145-71-81-101-106-69-57-140-57h-32v-640h32q72 0 167-32t193.5-64 179.5-32q189 0 189 167 0 26-5 56 30 16 47.5 52.5t17.5 73.5-18 69q53 50 53 119 0 25-10 55.5t-25 47.5h331q52 0 90 38t38 90zm128 1q0-105-75.5-181t-180.5-76h-169q-4-62-37-119 3-21 3-43 0-101-60-178 1-139-85-219.5t-227-80.5q-133 0-322 69-164 59-223 59h-288q-53 0-90.5 37.5t-37.5 90.5v640q0 53 37.5 90.5t90.5 37.5h288q10 0 21.5 4.5t23.5 14 22.5 18 24 22.5 20.5 21.5 19 21.5 14 17q65 74 100 129 13 21 33 62t37 72 40.5 63 55 49.5 69.5 17.5q125 0 206.5-67t81.5-189q0-68-22-128h374q104 0 180-76t76-179z"/><glyph unicode="" horiz-adv-x="1792" d="M1376 128h32v640h-32q-35 0-67.5 12t-62.5 37-50 46-49 54q-2 3-3.5 4.5t-4 4.5-4.5 5q-72 81-112 145-14 22-38 68-1 3-10.5 22.5t-18.5 36-20 35.5-21.5 30.5-18.5 11.5q-71 0-115.5-30.5t-44.5-97.5q0-43 15-84.5t33-68 33-55 15-48.5h-576q-50 0-89-38.5t-39-89.5q0-52 38-90t90-38h331q-15-17-25-47.5t-10-55.5q0-69 53-119-18-32-18-69t17.5-73.5 47.5-52.5q-4-24-4-56 0-85 48.5-126t135.5-41q84 0 183 32t194 64 167 32zm288 64q0 26-19 45t-45 19-45-19-19-45 19-45 45-19 45 19 19 45zm128 576v-640q0-53-37.5-90.5t-90.5-37.5h-288q-59 0-223-59-190-69-317-69-142 0-230 77.5t-87 217.5l1 5q-61 76-61 178 0 22 3 43-33 57-37 119h-169q-105 0-180.5 76t-75.5 181q0 103 76 179t180 76h374q-22 60-22 128 0 122 81.5 189t206.5 67q38 0 69.5-17.5t55-49.5 40.5-63 37-72 33-62q35-55 100-129 2-3 14-17t19-21.5 20.5-21.5 24-22.5 22.5-18 23.5-14 21.5-4.5h288q53 0 90.5-37.5t37.5-90.5z"/><glyph unicode="" d="M1280-64q0 26-19 45t-45 19-45-19-19-45 19-45 45-19 45 19 19 45zm128 764q0 189-167 189-26 0-56-5-16 30-52.5 47.5t-73.5 17.5-69-18q-50 53-119 53-25 0-55.5-10t-47.5-25v331q0 52-38 90t-90 38q-51 0-89.5-39t-38.5-89v-576q-20 0-48.5 15t-55 33-68 33-84.5 15q-67 0-97.5-44.5t-30.5-115.5q0-24 139-90 44-24 65-37 64-40 145-112 81-71 106-101 57-69 57-140v-32h640v32q0 72 32 167t64 193.5 32 179.5zm128 5q0-133-69-322-59-164-59-223v-288q0-53-37.5-90.5t-90.5-37.5h-640q-53 0-90.5 37.5t-37.5 90.5v288q0 10-4.5 21.5t-14 23.5-18 22.5-22.5 24-21.5 20.5-21.5 19-17 14q-74 65-129 100-21 13-62 33t-72 37-63 40.5-49.5 55-17.5 69.5q0 125 67 206.5t189 81.5q68 0 128-22v374q0 104 76 180t179 76q105 0 181-75.5t76-180.5v-169q62-4 119-37 21 3 43 3 101 0 178-60 139 1 219.5-85t80.5-227z"/><glyph unicode="" d="M1408 576q0 84-32 183t-64 194-32 167v32h-640v-32q0-35-12-67.5t-37-62.5-46-50-54-49q-9-8-14-12-81-72-145-112-22-14-68-38-3-1-22.5-10.5t-36-18.5-35.5-20-30.5-21.5-11.5-18.5q0-71 30.5-115.5t97.5-44.5q43 0 84.5 15t68 33 55 33 48.5 15v-576q0-50 38.5-89t89.5-39q52 0 90 38t38 90v331q46-35 103-35 69 0 119 53 32-18 69-18t73.5 17.5 52.5 47.5q24-4 56-4 85 0 126 48.5t41 135.5zm-128 768q0 26-19 45t-45 19-45-19-19-45 19-45 45-19 45 19 19 45zm256-764q0-142-77.5-230t-217.5-87l-5 1q-76-61-178-61-22 0-43 3-54-30-119-37v-169q0-105-76-180.5t-181-75.5q-103 0-179 76t-76 180v374q-54-22-128-22-121 0-188.5 81.5t-67.5 206.5q0 38 17.5 69.5t49.5 55 63 40.5 72 37 62 33q55 35 129 100 3 2 17 14t21.5 19 21.5 20.5 22.5 24 18 22.5 14 23.5 4.5 21.5v288q0 53 37.5 90.5t90.5 37.5h640q53 0 90.5-37.5t37.5-90.5v-288q0-59 59-223 69-190 69-317z"/><glyph unicode="" d="M1280 576v128q0 26-19 45t-45 19h-502l189 189q19 19 19 45t-19 45l-91 91q-18 18-45 18t-45-18l-362-362-91-91q-18-18-18-45t18-45l91-91 362-362q18-18 45-18t45 18l91 91q18 18 18 45t-18 45l-189 189h502q26 0 45 19t19 45zm256 64q0-209-103-385.5t-279.5-279.5-385.5-103-385.5 103-279.5 279.5-103 385.5 103 385.5 279.5 279.5 385.5 103 385.5-103 279.5-279.5 103-385.5z"/><glyph unicode="" d="M1285 640q0 27-18 45l-91 91-362 362q-18 18-45 18t-45-18l-91-91q-18-18-18-45t18-45l189-189h-502q-26 0-45-19t-19-45v-128q0-26 19-45t45-19h502l-189-189q-19-19-19-45t19-45l91-91q18-18 45-18t45 18l362 362 91 91q18 18 18 45zm251 0q0-209-103-385.5t-279.5-279.5-385.5-103-385.5 103-279.5 279.5-103 385.5 103 385.5 279.5 279.5 385.5 103 385.5-103 279.5-279.5 103-385.5z"/><glyph unicode="" d="M1284 641q0 27-18 45l-362 362-91 91q-18 18-45 18t-45-18l-91-91-362-362q-18-18-18-45t18-45l91-91q18-18 45-18t45 18l189 189v-502q0-26 19-45t45-19h128q26 0 45 19t19 45v502l189-189q19-19 45-19t45 19l91 91q18 18 18 45zm252-1q0-209-103-385.5t-279.5-279.5-385.5-103-385.5 103-279.5 279.5-103 385.5 103 385.5 279.5 279.5 385.5 103 385.5-103 279.5-279.5 103-385.5z"/><glyph unicode="" d="M1284 639q0 27-18 45l-91 91q-18 18-45 18t-45-18l-189-189v502q0 26-19 45t-45 19h-128q-26 0-45-19t-19-45v-502l-189 189q-19 19-45 19t-45-19l-91-91q-18-18-18-45t18-45l362-362 91-91q18-18 45-18t45 18l91 91 362 362q18 18 18 45zm252 1q0-209-103-385.5t-279.5-279.5-385.5-103-385.5 103-279.5 279.5-103 385.5 103 385.5 279.5 279.5 385.5 103 385.5-103 279.5-279.5 103-385.5z"/><glyph unicode="" d="M768 1408q209 0 385.5-103t279.5-279.5 103-385.5-103-385.5-279.5-279.5-385.5-103-385.5 103-279.5 279.5-103 385.5 103 385.5 279.5 279.5 385.5 103zm274-521q-2-1-9.5-9.5t-13.5-9.5q2 0 4.5 5t5 11 3.5 7q6 7 22 15 14 6 52 12 34 8 51-11-2 2 9.5 13t14.5 12q3 2 15 4.5t15 7.5l2 22q-12-1-17.5 7t-6.5 21q0-2-6-8 0 7-4.5 8t-11.5-1-9-1q-10 3-15 7.5t-8 16.5-4 15q-2 5-9.5 10.5t-9.5 10.5q-1 2-2.5 5.5t-3 6.5-4 5.5-5.5 2.5-7-5-7.5-10-4.5-5q-3 2-6 1.5t-4.5-1-4.5-3-5-3.5q-3-2-8.5-3t-8.5-2q15 5-1 11-10 4-16 3 9 4 7.5 12t-8.5 14h5q-1 4-8.5 8.5t-17.5 8.5-13 6q-8 5-34 9.5t-33 .5q-5-6-4.5-10.5t4-14 3.5-12.5q1-6-5.5-13t-6.5-12q0-7 14-15.5t10-21.5q-3-8-16-16t-16-12q-5-8-1.5-18.5t10.5-16.5q2-2 1.5-4t-3.5-4.5-5.5-4-6.5-3.5l-3-2q-11-5-20.5 6t-13.5 26q-7 25-16 30-23 8-29-1-5 13-41 26-25 9-58 4 6 1 0 15-7 15-19 12 3 6 4 17.5t1 13.5q3 13 12 23 1 1 7 8.5t9.5 13.5.5 6q35-4 50 11 5 5 11.5 17t10.5 17q9 6 14 5.5t14.5-5.5 14.5-5q14-1 15.5 11t-7.5 20q12-1 3 17-5 7-8 9-12 4-27-5-8-4 2-8-1 1-9.5-10.5t-16.5-17.5-16 5q-1 1-5.5 13.5t-9.5 13.5q-8 0-16-15 3 8-11 15t-24 8q19 12-8 27-7 4-20.5 5t-19.5-4q-5-7-5.5-11.5t5-8 10.5-5.5 11.5-4 8.5-3q14-10 8-14-2-1-8.5-3.5t-11.5-4.5-6-4q-3-4 0-14t-2-14q-5 5-9 17.5t-7 16.5q7-9-25-6l-10 1q-4 0-16-2t-20.5-1-13.5 8q-4 8 0 20 1 4 4 2-4 3-11 9.5t-10 8.5q-46-15-94-41 6-1 12 1 5 2 13 6.5t10 5.5q34 14 42 7l5 5q14-16 20-25-7 4-30 1-20-6-22-12 7-12 5-18-4 3-11.5 10t-14.5 11-15 5q-16 0-22-1-146-80-235-222 7-7 12-8 4-1 5-9t2.5-11 11.5 3q9-8 3-19 1 1 44-27 19-17 21-21 3-11-10-18-1 2-9 9t-9 4q-3-5 .5-18.5t10.5-12.5q-7 0-9.5-16t-2.5-35.5-1-23.5l2-1q-3-12 5.5-34.5t21.5-19.5q-13-3 20-43 6-8 8-9 3-2 12-7.5t15-10 10-10.5q4-5 10-22.5t14-23.5q-2-6 9.5-20t10.5-23q-1 0-2.5-1t-2.5-1q3-7 15.5-14t15.5-13q1-3 2-10t3-11 8-2q2 20-24 62-15 25-17 29-3 5-5.5 15.5t-4.5 14.5q2 0 6-1.5t8.5-3.5 7.5-4 2-3q-3-7 2-17.5t12-18.5 17-19 12-13q6-6 14-19.5t0-13.5q9 0 20-10t17-20q5-8 8-26t5-24q2-7 8.5-13.5t12.5-9.5l16-8 13-7q5-2 18.5-10.5t21.5-11.5q10-4 16-4t14.5 2.5 13.5 3.5q15 2 29-15t21-21q36-19 55-11-2-1 .5-7.5t8-15.5 9-14.5 5.5-8.5q5-6 18-15t18-15q6 4 7 9-3-8 7-20t18-10q14 3 14 32-31-15-49 18 0 1-2.5 5.5t-4 8.5-2.5 8.5 0 7.5 5 3q9 0 10 3.5t-2 12.5-4 13q-1 8-11 20t-12 15q-5-9-16-8t-16 9q0-1-1.5-5.5t-1.5-6.5q-13 0-15 1 1 3 2.5 17.5t3.5 22.5q1 4 5.5 12t7.5 14.5 4 12.5-4.5 9.5-17.5 2.5q-19-1-26-20-1-3-3-10.5t-5-11.5-9-7q-7-3-24-2t-24 5q-13 8-22.5 29t-9.5 37q0 10 2.5 26.5t3 25-5.5 24.5q3 2 9 9.5t10 10.5q2 1 4.5 1.5t4.5 0 4 1.5 3 6q-1 1-4 3-3 3-4 3 7-3 28.5 1.5t27.5-1.5q15-11 22 2 0 1-2.5 9.5t-.5 13.5q5-27 29-9 3-3 15.5-5t17.5-5q3-2 7-5.5t5.5-4.5 5 .5 8.5 6.5q10-14 12-24 11-40 19-44 7-3 11-2t4.5 9.5 0 14-1.5 12.5l-1 8v18l-1 8q-15 3-18.5 12t1.5 18.5 15 18.5q1 1 8 3.5t15.5 6.5 12.5 8q21 19 15 35 7 0 11 9-1 0-5 3t-7.5 5-4.5 2q9 5 2 16 5 3 7.5 11t7.5 10q9-12 21-2 7 8 1 16 5 7 20.5 10.5t18.5 9.5q7-2 8 2t1 12 3 12q4 5 15 9t13 5l17 11q3 4 0 4 18-2 31 11 10 11-6 20 3 6-3 9.5t-15 5.5q3 1 11.5.5t10.5 1.5q15 10-7 16-17 5-43-12zm-163-877q206 36 351 189-3 3-12.5 4.5t-12.5 3.5q-18 7-24 8 1 7-2.5 13t-8 9-12.5 8-11 7q-2 2-7 6t-7 5.5-7.5 4.5-8.5 2-10-1l-3-1q-3-1-5.5-2.5t-5.5-3-4-3 0-2.5q-21 17-36 22-5 1-11 5.5t-10.5 7-10 1.5-11.5-7q-5-5-6-15t-2-13q-7 5 0 17.5t2 18.5q-3 6-10.5 4.5t-12-4.5-11.5-8.5-9-6.5-8.5-5.5-8.5-7.5q-3-4-6-12t-5-11q-2 4-11.5 6.5t-9.5 5.5q2-10 4-35t5-38q7-31-12-48-27-25-29-40-4-22 12-26 0-7-8-20.5t-7-21.5q0-6 2-16z"/><glyph unicode="" horiz-adv-x="1664" d="M384 64q0 26-19 45t-45 19-45-19-19-45 19-45 45-19 45 19 19 45zm644 420l-682-682q-37-37-90-37-52 0-91 37l-106 108q-38 36-38 90 0 53 38 91l681 681q39-98 114.5-173.5t173.5-114.5zm634 435q0-39-23-106-47-134-164.5-217.5t-258.5-83.5q-185 0-316.5 131.5t-131.5 316.5 131.5 316.5 316.5 131.5q58 0 121.5-16.5t107.5-46.5q16-11 16-28t-16-28l-293-169v-224l193-107q5 3 79 48.5t135.5 81 70.5 35.5q15 0 23.5-10t8.5-25z"/><glyph unicode="" horiz-adv-x="1792" d="M1024 128h640v128h-640v-128zm-384 512h1024v128h-1024v-128zm640 512h384v128h-384v-128zm512-832v-256q0-26-19-45t-45-19h-1664q-26 0-45 19t-19 45v256q0 26 19 45t45 19h1664q26 0 45-19t19-45zm0 512v-256q0-26-19-45t-45-19h-1664q-26 0-45 19t-19 45v256q0 26 19 45t45 19h1664q26 0 45-19t19-45zm0 512v-256q0-26-19-45t-45-19h-1664q-26 0-45 19t-19 45v256q0 26 19 45t45 19h1664q26 0 45-19t19-45z"/><glyph unicode="" horiz-adv-x="1408" d="M1403 1241q17-41-14-70l-493-493v-742q0-42-39-59-13-5-25-5-27 0-45 19l-256 256q-19 19-19 45v486l-493 493q-31 29-14 70 17 39 59 39h1280q42 0 59-39z"/><glyph unicode="" horiz-adv-x="1792" d="M640 1280h512v128h-512v-128zm1152-640v-480q0-66-47-113t-113-47h-1472q-66 0-113 47t-47 113v480h672v-160q0-26 19-45t45-19h320q26 0 45 19t19 45v160h672zm-768 0v-128h-256v128h256zm768 480v-384h-1792v384q0 66 47 113t113 47h352v160q0 40 28 68t68 28h576q40 0 68-28t28-68v-160h352q66 0 113-47t47-113z"/><glyph unicode="" d="M1283 995l-355-355 355-355 144 144q29 31 70 14 39-17 39-59v-448q0-26-19-45t-45-19h-448q-42 0-59 40-17 39 14 69l144 144-355 355-355-355 144-144q31-30 14-69-17-40-59-40h-448q-26 0-45 19t-19 45v448q0 42 40 59 39 17 69-14l144-144 355 355-355 355-144-144q-19-19-45-19-12 0-24 5-40 17-40 59v448q0 26 19 45t45 19h448q42 0 59-40 17-39-14-69l-144-144 355-355 355 355-144 144q-31 30-14 69 17 40 59 40h448q26 0 45-19t19-45v-448q0-42-39-59-13-5-25-5-26 0-45 19z"/><glyph unicode="" horiz-adv-x="1920" d="M593 640q-162-5-265-128h-134q-82 0-138 40.5t-56 118.5q0 353 124 353 6 0 43.5-21t97.5-42.5 119-21.5q67 0 133 23-5-37-5-66 0-139 81-256zm1071-637q0-120-73-189.5t-194-69.5h-874q-121 0-194 69.5t-73 189.5q0 53 3.5 103.5t14 109 26.5 108.5 43 97.5 62 81 85.5 53.5 111.5 20q10 0 43-21.5t73-48 107-48 135-21.5 135 21.5 107 48 73 48 43 21.5q61 0 111.5-20t85.5-53.5 62-81 43-97.5 26.5-108.5 14-109 3.5-103.5zm-1024 1277q0-106-75-181t-181-75-181 75-75 181 75 181 181 75 181-75 75-181zm704-384q0-159-112.5-271.5t-271.5-112.5-271.5 112.5-112.5 271.5 112.5 271.5 271.5 112.5 271.5-112.5 112.5-271.5zm576-225q0-78-56-118.5t-138-40.5h-134q-103 123-265 128 81 117 81 256 0 29-5 66 66-23 133-23 59 0 119 21.5t97.5 42.5 43.5 21q124 0 124-353zm-128 609q0-106-75-181t-181-75-181 75-75 181 75 181 181 75 181-75 75-181z"/><glyph unicode="" horiz-adv-x="1664" d="M1456 320q0 40-28 68l-208 208q-28 28-68 28-42 0-72-32 3-3 19-18.5t21.5-21.5 15-19 13-25.5 3.5-27.5q0-40-28-68t-68-28q-15 0-27.5 3.5t-25.5 13-19 15-21.5 21.5-18.5 19q-33-31-33-73 0-40 28-68l206-207q27-27 68-27 40 0 68 26l147 146q28 28 28 67zm-703 705q0 40-28 68l-206 207q-28 28-68 28-39 0-68-27l-147-146q-28-28-28-67 0-40 28-68l208-208q27-27 68-27 42 0 72 31-3 3-19 18.5t-21.5 21.5-15 19-13 25.5-3.5 27.5q0 40 28 68t68 28q15 0 27.5-3.5t25.5-13 19-15 21.5-21.5 18.5-19q33 31 33 73zm895-705q0-120-85-203l-147-146q-83-83-203-83-121 0-204 85l-206 207q-83 83-83 203 0 123 88 209l-88 88q-86-88-208-88-120 0-204 84l-208 208q-84 84-84 204t85 203l147 146q83 83 203 83 121 0 204-85l206-207q83-83 83-203 0-123-88-209l88-88q86 88 208 88 120 0 204-84l208-208q84-84 84-204z"/><glyph unicode="" horiz-adv-x="1920" d="M1920 384q0-159-112.5-271.5t-271.5-112.5h-1088q-185 0-316.5 131.5t-131.5 316.5q0 132 71 241.5t187 163.5q-2 28-2 43 0 212 150 362t362 150q158 0 286.5-88t187.5-230q70 62 166 62 106 0 181-75t75-181q0-75-41-138 129-30 213-134.5t84-239.5z"/><glyph unicode="" horiz-adv-x="1664" d="M1527 88q56-89 21.5-152.5t-140.5-63.5h-1152q-106 0-140.5 63.5t21.5 152.5l503 793v399h-64q-26 0-45 19t-19 45 19 45 45 19h512q26 0 45-19t19-45-19-45-45-19h-64v-399zm-779 725l-272-429h712l-272 429-20 31v436h-128v-436z"/><glyph unicode="" horiz-adv-x="1792" d="M960 640q26 0 45-19t19-45-19-45-45-19-45 19-19 45 19 45 45 19zm300-64l507-398q28-20 25-56-5-35-35-51l-128-64q-13-7-29-7-17 0-31 8l-690 387-110-66q-8-4-12-5 14-49 10-97-7-77-56-147.5t-132-123.5q-132-84-277-84-136 0-222 78-90 84-79 207 7 76 56 147t131 124q132 84 278 84 83 0 151-31 9 13 22 22l122 73-122 73q-13 9-22 22-68-31-151-31-146 0-278 84-82 53-131 124t-56 147q-5 59 15.5 113t63.5 93q85 79 222 79 145 0 277-84 83-52 132-123t56-148q4-48-10-97 4-1 12-5l110-66 690 387q14 8 31 8 16 0 29-7l128-64q30-16 35-51 3-36-25-56zm-681 260q46 42 21 108t-106 117q-92 59-192 59-74 0-113-36-46-42-21-108t106-117q92-59 192-59 74 0 113 36zm-85-745q81 51 106 117t-21 108q-39 36-113 36-100 0-192-59-81-51-106-117t21-108q39-36 113-36 100 0 192 59zm178 613l96-58v11q0 36 33 56l14 8-79 47-26-26q-3-3-10-11t-12-12q-2-2-4-3.5t-3-2.5zm224-224l96-32 736 576-128 64-768-431v-113l-160-96 9-8q2-2 7-6 4-4 11-12t11-12l26-26zm704-416l128 64-520 408-177-138q-2-3-13-7z"/><glyph unicode="" horiz-adv-x="1792" d="M1696 1152q40 0 68-28t28-68v-1216q0-40-28-68t-68-28h-960q-40 0-68 28t-28 68v288h-544q-40 0-68 28t-28 68v672q0 40 20 88t48 76l408 408q28 28 76 48t88 20h416q40 0 68-28t28-68v-328q68 40 128 40h416zm-544-213l-299-299h299v299zm-640 384l-299-299h299v299zm196-647l316 316v416h-384v-416q0-40-28-68t-68-28h-416v-640h512v256q0 40 20 88t48 76zm956-804v1152h-384v-416q0-40-28-68t-68-28h-416v-640h896z"/><glyph unicode="" horiz-adv-x="1408" d="M1404 151q0-117-79-196t-196-79q-135 0-235 100l-777 776q-113 115-113 271 0 159 110 270t269 111q158 0 273-113l605-606q10-10 10-22 0-16-30.5-46.5t-46.5-30.5q-13 0-23 10l-606 607q-79 77-181 77-106 0-179-75t-73-181q0-105 76-181l776-777q63-63 145-63 64 0 106 42t42 106q0 82-63 145l-581 581q-26 24-60 24-29 0-48-19t-19-48q0-32 25-59l410-410q10-10 10-22 0-16-31-47t-47-31q-12 0-22 10l-410 410q-63 61-63 149 0 82 57 139t139 57q88 0 149-63l581-581q100-98 100-235z"/><glyph unicode="" d="M384 0h768v384h-768v-384zm896 0h128v896q0 14-10 38.5t-20 34.5l-281 281q-10 10-34 20t-39 10v-416q0-40-28-68t-68-28h-576q-40 0-68 28t-28 68v416h-128v-1280h128v416q0 40 28 68t68 28h832q40 0 68-28t28-68v-416zm-384 928v320q0 13-9.5 22.5t-22.5 9.5h-192q-13 0-22.5-9.5t-9.5-22.5v-320q0-13 9.5-22.5t22.5-9.5h192q13 0 22.5 9.5t9.5 22.5zm640-32v-928q0-40-28-68t-68-28h-1344q-40 0-68 28t-28 68v1344q0 40 28 68t68 28h928q40 0 88-20t76-48l280-280q28-28 48-76t20-88z"/><glyph unicode="" d="M1536 1120v-960q0-119-84.5-203.5t-203.5-84.5h-960q-119 0-203.5 84.5t-84.5 203.5v960q0 119 84.5 203.5t203.5 84.5h960q119 0 203.5-84.5t84.5-203.5z"/><glyph unicode="" d="M1536 192v-128q0-26-19-45t-45-19h-1408q-26 0-45 19t-19 45v128q0 26 19 45t45 19h1408q26 0 45-19t19-45zm0 512v-128q0-26-19-45t-45-19h-1408q-26 0-45 19t-19 45v128q0 26 19 45t45 19h1408q26 0 45-19t19-45zm0 512v-128q0-26-19-45t-45-19h-1408q-26 0-45 19t-19 45v128q0 26 19 45t45 19h1408q26 0 45-19t19-45z"/><glyph unicode="" horiz-adv-x="1792" d="M384 128q0-80-56-136t-136-56-136 56-56 136 56 136 136 56 136-56 56-136zm0 512q0-80-56-136t-136-56-136 56-56 136 56 136 136 56 136-56 56-136zm1408-416v-192q0-13-9.5-22.5t-22.5-9.5h-1216q-13 0-22.5 9.5t-9.5 22.5v192q0 13 9.5 22.5t22.5 9.5h1216q13 0 22.5-9.5t9.5-22.5zm-1408 928q0-80-56-136t-136-56-136 56-56 136 56 136 136 56 136-56 56-136zm1408-416v-192q0-13-9.5-22.5t-22.5-9.5h-1216q-13 0-22.5 9.5t-9.5 22.5v192q0 13 9.5 22.5t22.5 9.5h1216q13 0 22.5-9.5t9.5-22.5zm0 512v-192q0-13-9.5-22.5t-22.5-9.5h-1216q-13 0-22.5 9.5t-9.5 22.5v192q0 13 9.5 22.5t22.5 9.5h1216q13 0 22.5-9.5t9.5-22.5z"/><glyph unicode="" horiz-adv-x="1792" d="M381-84q0-80-54.5-126t-135.5-46q-106 0-172 66l57 88q49-45 106-45 29 0 50.5 14.5t21.5 42.5q0 64-105 56l-26 56q8 10 32.5 43.5t42.5 54 37 38.5v1q-16 0-48.5-1t-48.5-1v-53h-106v152h333v-88l-95-115q51-12 81-49t30-88zm2 627v-159h-362q-6 36-6 54 0 51 23.5 93t56.5 68 66 47.5 56.5 43.5 23.5 45q0 25-14.5 38.5t-39.5 13.5q-46 0-81-58l-85 59q24 51 71.5 79.5t105.5 28.5q73 0 123-41.5t50-112.5q0-50-34-91.5t-75-64.5-75.5-50.5-35.5-52.5h127v60h105zm1409-319v-192q0-13-9.5-22.5t-22.5-9.5h-1216q-13 0-22.5 9.5t-9.5 22.5v192q0 14 9 23t23 9h1216q13 0 22.5-9.5t9.5-22.5zm-1408 899v-99h-335v99h107q0 41 .5 122t.5 121v12h-2q-8-17-50-54l-71 76 136 127h106v-404h108zm1408-387v-192q0-13-9.5-22.5t-22.5-9.5h-1216q-13 0-22.5 9.5t-9.5 22.5v192q0 14 9 23t23 9h1216q13 0 22.5-9.5t9.5-22.5zm0 512v-192q0-13-9.5-22.5t-22.5-9.5h-1216q-13 0-22.5 9.5t-9.5 22.5v192q0 13 9.5 22.5t22.5 9.5h1216q13 0 22.5-9.5t9.5-22.5z"/><glyph unicode="" horiz-adv-x="1792" d="M1760 640q14 0 23-9t9-23v-64q0-14-9-23t-23-9h-1728q-14 0-23 9t-9 23v64q0 14 9 23t23 9h1728zm-1277 64q-28 35-51 80-48 97-48 188 0 181 134 309 133 127 393 127 50 0 167-19 66-12 177-48 10-38 21-118 14-123 14-183 0-18-5-45l-12-3-84 6-14 2q-50 149-103 205-88 91-210 91-114 0-182-59-67-58-67-146 0-73 66-140t279-129q69-20 173-66 58-28 95-52h-743zm507-256h411q7-39 7-92 0-111-41-212-23-55-71-104-37-35-109-81-80-48-153-66-80-21-203-21-114 0-195 23l-140 40q-57 16-72 28-8 8-8 22v13q0 108-2 156-1 30 0 68l2 37v44l102 2q15-34 30-71t22.5-56 12.5-27q35-57 80-94 43-36 105-57 59-22 132-22 64 0 139 27 77 26 122 86 47 61 47 129 0 84-81 157-34 29-137 71z"/><glyph unicode="" d="M48 1313q-37 2-45 4l-3 88q13 1 40 1 60 0 112-4 132-7 166-7 86 0 168 3 116 4 146 5 56 0 86 2l-1-14 2-64v-9q-60-9-124-9-60 0-79-25-13-14-13-132 0-13 .5-32.5t.5-25.5l1-229 14-280q6-124 51-202 35-59 96-92 88-47 177-47 104 0 191 28 56 18 99 51 48 36 65 64 36 56 53 114 21 73 21 229 0 79-3.5 128t-11 122.5-13.5 159.5l-4 59q-5 67-24 88-34 35-77 34l-100-2-14 3 2 86h84l205-10q76-3 196 10l18-2q6-38 6-51 0-7-4-31-45-12-84-13-73-11-79-17-15-15-15-41 0-7 1.5-27t1.5-31q8-19 22-396 6-195-15-304-15-76-41-122-38-65-112-123-75-57-182-89-109-33-255-33-167 0-284 46-119 47-179 122-61 76-83 195-16 80-16 237v333q0 188-17 213-25 36-147 39zm1488-1409v64q0 14-9 23t-23 9h-1472q-14 0-23-9t-9-23v-64q0-14 9-23t23-9h1472q14 0 23 9t9 23z"/><glyph unicode="" horiz-adv-x="1664" d="M512 160v192q0 14-9 23t-23 9h-320q-14 0-23-9t-9-23v-192q0-14 9-23t23-9h320q14 0 23 9t9 23zm0 384v192q0 14-9 23t-23 9h-320q-14 0-23-9t-9-23v-192q0-14 9-23t23-9h320q14 0 23 9t9 23zm512-384v192q0 14-9 23t-23 9h-320q-14 0-23-9t-9-23v-192q0-14 9-23t23-9h320q14 0 23 9t9 23zm-512 768v192q0 14-9 23t-23 9h-320q-14 0-23-9t-9-23v-192q0-14 9-23t23-9h320q14 0 23 9t9 23zm512-384v192q0 14-9 23t-23 9h-320q-14 0-23-9t-9-23v-192q0-14 9-23t23-9h320q14 0 23 9t9 23zm512-384v192q0 14-9 23t-23 9h-320q-14 0-23-9t-9-23v-192q0-14 9-23t23-9h320q14 0 23 9t9 23zm-512 768v192q0 14-9 23t-23 9h-320q-14 0-23-9t-9-23v-192q0-14 9-23t23-9h320q14 0 23 9t9 23zm512-384v192q0 14-9 23t-23 9h-320q-14 0-23-9t-9-23v-192q0-14 9-23t23-9h320q14 0 23 9t9 23zm0 384v192q0 14-9 23t-23 9h-320q-14 0-23-9t-9-23v-192q0-14 9-23t23-9h320q14 0 23 9t9 23zm128 320v-1088q0-66-47-113t-113-47h-1344q-66 0-113 47t-47 113v1088q0 66 47 113t113 47h1344q66 0 113-47t47-113z"/><glyph unicode="" horiz-adv-x="1664" d="M1190 955l293 293-107 107-293-293zm447 293q0-27-18-45l-1286-1286q-18-18-45-18t-45 18l-198 198q-18 18-18 45t18 45l1286 1286q18 18 45 18t45-18l198-198q18-18 18-45zm-1351 190l98-30-98-30-30-98-30 98-98 30 98 30 30 98zm350-162l196-60-196-60-60-196-60 196-196 60 196 60 60 196zm930-478l98-30-98-30-30-98-30 98-98 30 98 30 30 98zm-640 640l98-30-98-30-30-98-30 98-98 30 98 30 30 98z"/><glyph unicode="" horiz-adv-x="1792" d="M640 128q0 52-38 90t-90 38-90-38-38-90 38-90 90-38 90 38 38 90zm-384 512h384v256h-158q-13 0-22-9l-195-195q-9-9-9-22v-30zm1280-512q0 52-38 90t-90 38-90-38-38-90 38-90 90-38 90 38 38 90zm256 1088v-1024q0-15-4-26.5t-13.5-18.5-16.5-11.5-23.5-6-22.5-2-25.5 0-22.5.5q0-106-75-181t-181-75-181 75-75 181h-384q0-106-75-181t-181-75-181 75-75 181h-64q-3 0-22.5-.5t-25.5 0-22.5 2-23.5 6-16.5 11.5-13.5 18.5-4 26.5q0 26 19 45t45 19v320q0 8-.5 35t0 38 2.5 34.5 6.5 37 14 30.5 22.5 30l198 198q19 19 50.5 32t58.5 13h160v192q0 26 19 45t45 19h1024q26 0 45-19t19-45z"/><glyph unicode="" d="M1536 640q0-209-103-385.5t-279.5-279.5-385.5-103q-111 0-218 32 59 93 78 164 9 34 54 211 20-39 73-67.5t114-28.5q121 0 216 68.5t147 188.5 52 270q0 114-59.5 214t-172.5 163-255 63q-105 0-196-29t-154.5-77-109-110.5-67-129.5-21.5-134q0-104 40-183t117-111q30-12 38 20 2 7 8 31t8 30q6 23-11 43-51 61-51 151 0 151 104.5 259.5t273.5 108.5q151 0 235.5-82t84.5-213q0-170-68.5-289t-175.5-119q-61 0-98 43.5t-23 104.5q8 35 26.5 93.5t30 103 11.5 75.5q0 50-27 83t-77 33q-62 0-105-57t-43-142q0-73 25-122l-99-418q-17-70-13-177-206 91-333 281t-127 423q0 209 103 385.5t279.5 279.5 385.5 103 385.5-103 279.5-279.5 103-385.5z"/><glyph unicode="" d="M1248 1408q119 0 203.5-84.5t84.5-203.5v-960q0-119-84.5-203.5t-203.5-84.5h-725q85 122 108 210 9 34 53 209 21-39 73.5-67t112.5-28q181 0 295.5 147.5t114.5 373.5q0 84-35 162.5t-96.5 139-152.5 97-197 36.5q-104 0-194.5-28.5t-153-76.5-107.5-109.5-66.5-128-21.5-132.5q0-102 39.5-180t116.5-110q13-5 23.5 0t14.5 19q10 44 15 61 6 23-11 42-50 62-50 150 0 150 103.5 256.5t270.5 106.5q149 0 232.5-81t83.5-210q0-168-67.5-286t-173.5-118q-60 0-97 43.5t-23 103.5q8 34 26.5 92.5t29.5 102 11 74.5q0 49-26.5 81.5t-75.5 32.5q-61 0-103.5-56.5t-42.5-139.5q0-72 24-121l-98-414q-24-100-7-254h-183q-119 0-203.5 84.5t-84.5 203.5v960q0 119 84.5 203.5t203.5 84.5h960z"/><glyph unicode="" d="M678-57q0-38-10-71h-380q-95 0-171.5 56.5t-103.5 147.5q24 45 69 77.5t100 49.5 107 24 107 7q32 0 49-2 6-4 30.5-21t33-23 31-23 32-25.5 27.5-25.5 26.5-29.5 21-30.5 17.5-34.5 9.5-36 4.5-40.5zm-293 351q-234-7-385-85v433q103-118 273-118 32 0 70 5-21-61-21-86 0-67 63-149zm173 511q0-100-43.5-160.5t-140.5-60.5q-51 0-97 26t-78 67.5-56 93.5-35.5 104-11.5 99q0 96 51.5 165t144.5 69q66 0 119-41t84-104 47-130 16-128zm978 91v-736q0-119-84.5-203.5t-203.5-84.5h-468q39 73 39 157 0 66-22 122.5t-55.5 93-72 71-72 59.5-55.5 54.5-22 59.5q0 36 23 68t56 61.5 65.5 64.5 55.5 93 23 131-26.5 145.5-75.5 118.5q-6 6-14 11t-12.5 7.5-10 9.5-10.5 17h135l135 64h-437q-138 0-244.5-38.5t-182.5-133.5q0 126 81 213t207 87h960q119 0 203.5-84.5t84.5-203.5v-96h-256v256h-128v-256h-256v-128h256v-256h128v256h256z"/><glyph unicode="" horiz-adv-x="1664" d="M876 71q0 21-4.5 40.5t-9.5 36-17.5 34.5-21 30.5-26.5 29.5-27.5 25.5-32 25.5-31 23-33 23-30.5 21q-17 2-50 2-54 0-106-7t-108-25-98-46-69-75-27-107q0-68 35.5-121.5t93-84 120.5-45.5 127-15q59 0 112.5 12.5t100.5 39 74.5 73.5 27.5 110zm-120 862q0 60-16.5 127.5t-47 130.5-84 104-119.5 41q-93 0-144-69t-51-165q0-47 11.5-99t35.5-104 56-93.5 78-67.5 97-26q97 0 140.5 60.5t43.5 160.5zm-131 475h437l-135-79h-135q71-45 110-126t39-169q0-74-23-131.5t-56-92.5-66-64.5-56-61-23-67.5q0-26 16.5-51t43-48 58.5-48 64-55.5 58.5-66 43-85 16.5-106.5q0-160-140-282-152-131-420-131-59 0-119.5 10t-122 33.5-108.5 58-77 89-30 121.5q0 61 37 135 32 64 96 110.5t145 71 155 36 150 13.5q-64 83-64 149 0 12 2 23.5t5 19.5 8 21.5 7 21.5q-40-5-70-5-149 0-255.5 98t-106.5 246q0 140 95 250.5t234 141.5q94 20 187 20zm1039-256v-128h-256v-256h-128v256h-256v128h256v256h128v-256h256z"/><glyph unicode="" horiz-adv-x="1920" d="M768 384h384v96h-128v448h-114l-148-137 77-80q42 37 55 57h2v-288h-128v-96zm512 256q0-70-21-142t-59.5-134-101.5-101-138-39-138 39-101.5 101-59.5 134-21 142 21 142 59.5 134 101.5 101 138 39 138-39 101.5-101 59.5-134 21-142zm512-256v512q-106 0-181 75t-75 181h-1152q0-106-75-181t-181-75v-512q106 0 181-75t75-181h1152q0 106 75 181t181 75zm128 832v-1152q0-26-19-45t-45-19h-1792q-26 0-45 19t-19 45v1152q0 26 19 45t45 19h1792q26 0 45-19t19-45z"/><glyph unicode="" horiz-adv-x="1024" d="M1024 832q0-26-19-45l-448-448q-19-19-45-19t-45 19l-448 448q-19 19-19 45t19 45 45 19h896q26 0 45-19t19-45z"/><glyph unicode="" horiz-adv-x="1024" d="M1024 320q0-26-19-45t-45-19h-896q-26 0-45 19t-19 45 19 45l448 448q19 19 45 19t45-19l448-448q19-19 19-45z"/><glyph unicode="" horiz-adv-x="640" d="M640 1088v-896q0-26-19-45t-45-19-45 19l-448 448q-19 19-19 45t19 45l448 448q19 19 45 19t45-19 19-45z"/><glyph unicode="" horiz-adv-x="640" d="M576 640q0-26-19-45l-448-448q-19-19-45-19t-45 19-19 45v896q0 26 19 45t45 19 45-19l448-448q19-19 19-45z"/><glyph unicode="" horiz-adv-x="1664" d="M160 0h608v1152h-640v-1120q0-13 9.5-22.5t22.5-9.5zm1376 32v1120h-640v-1152h608q13 0 22.5 9.5t9.5 22.5zm128 1216v-1216q0-66-47-113t-113-47h-1344q-66 0-113 47t-47 113v1216q0 66 47 113t113 47h1344q66 0 113-47t47-113z"/><glyph unicode="" horiz-adv-x="1024" d="M1024 448q0-26-19-45l-448-448q-19-19-45-19t-45 19l-448 448q-19 19-19 45t19 45 45 19h896q26 0 45-19t19-45zm0 384q0-26-19-45t-45-19h-896q-26 0-45 19t-19 45 19 45l448 448q19 19 45 19t45-19l448-448q19-19 19-45z"/><glyph unicode="" horiz-adv-x="1024" d="M1024 448q0-26-19-45l-448-448q-19-19-45-19t-45 19l-448 448q-19 19-19 45t19 45 45 19h896q26 0 45-19t19-45z"/><glyph unicode="" horiz-adv-x="1024" d="M1024 832q0-26-19-45t-45-19h-896q-26 0-45 19t-19 45 19 45l448 448q19 19 45 19t45-19l448-448q19-19 19-45z"/><glyph unicode="" horiz-adv-x="1792" d="M1792 826v-794q0-66-47-113t-113-47h-1472q-66 0-113 47t-47 113v794q44-49 101-87 362-246 497-345 57-42 92.5-65.5t94.5-48 110-24.5h2q51 0 110 24.5t94.5 48 92.5 65.5q170 123 498 345 57 39 100 87zm0 294q0-79-49-151t-122-123q-376-261-468-325-10-7-42.5-30.5t-54-38-52-32.5-57.5-27-50-9h-2q-23 0-50 9t-57.5 27-52 32.5-54 38-42.5 30.5q-91 64-262 182.5t-205 142.5q-62 42-117 115.5t-55 136.5q0 78 41.5 130t118.5 52h1472q65 0 112.5-47t47.5-113z"/><glyph unicode="" d="M349 911v-991h-330v991h330zm21 306q1-73-50.5-122t-135.5-49h-2q-82 0-132 49t-50 122q0 74 51.5 122.5t134.5 48.5 133-48.5 51-122.5zm1166-729v-568h-329v530q0 105-40.5 164.5t-126.5 59.5q-63 0-105.5-34.5t-63.5-85.5q-11-30-11-81v-553h-329q2 399 2 647t-1 296l-1 48h329v-144h-2q20 32 41 56t56.5 52 87 43.5 114.5 15.5q171 0 275-113.5t104-332.5z"/><glyph unicode="" d="M1536 640q0-156-61-298t-164-245-245-164-298-61q-172 0-327 72.5t-264 204.5q-7 10-6.5 22.5t8.5 20.5l137 138q10 9 25 9 16-2 23-12 73-95 179-147t225-52q104 0 198.5 40.5t163.5 109.5 109.5 163.5 40.5 198.5-40.5 198.5-109.5 163.5-163.5 109.5-198.5 40.5q-98 0-188-35.5t-160-101.5l137-138q31-30 14-69-17-40-59-40h-448q-26 0-45 19t-19 45v448q0 42 40 59 39 17 69-14l130-129q107 101 244.5 156.5t284.5 55.5q156 0 298-61t245-164 164-245 61-298z"/><glyph unicode="" horiz-adv-x="1792" d="M1771 0q0-53-37-90l-107-108q-39-37-91-37-53 0-90 37l-363 364q-38 36-38 90 0 53 43 96l-256 256-126-126q-14-14-34-14t-34 14q2-2 12.5-12t12.5-13 10-11.5 10-13.5 6-13.5 5.5-16.5 1.5-18q0-38-28-68-3-3-16.5-18t-19-20.5-18.5-16.5-22-15.5-22-9-26-4.5q-40 0-68 28l-408 408q-28 28-28 68 0 13 4.5 26t9 22 15.5 22 16.5 18.5 20.5 19 18 16.5q30 28 68 28 10 0 18-1.5t16.5-5.5 13.5-6 13.5-10 11.5-10 13-12.5 12-12.5q-14 14-14 34t14 34l348 348q14 14 34 14t34-14q-2 2-12.5 12t-12.5 13-10 11.5-10 13.5-6 13.5-5.5 16.5-1.5 18q0 38 28 68 3 3 16.5 18t19 20.5 18.5 16.5 22 15.5 22 9 26 4.5q40 0 68-28l408-408q28-28 28-68 0-13-4.5-26t-9-22-15.5-22-16.5-18.5-20.5-19-18-16.5q-30-28-68-28-10 0-18 1.5t-16.5 5.5-13.5 6-13.5 10-11.5 10-13 12.5-12 12.5q14-14 14-34t-14-34l-126-126 256-256q43 43 96 43 52 0 91-37l363-363q37-39 37-91z"/><glyph unicode="" horiz-adv-x="1792" d="M384 384q0 53-37.5 90.5t-90.5 37.5-90.5-37.5-37.5-90.5 37.5-90.5 90.5-37.5 90.5 37.5 37.5 90.5zm192 448q0 53-37.5 90.5t-90.5 37.5-90.5-37.5-37.5-90.5 37.5-90.5 90.5-37.5 90.5 37.5 37.5 90.5zm428-481l101 382q6 26-7.5 48.5t-38.5 29.5-48-6.5-30-39.5l-101-382q-60-5-107-43.5t-63-98.5q-20-77 20-146t117-89 146 20 89 117q16 60-6 117t-72 91zm660 33q0 53-37.5 90.5t-90.5 37.5-90.5-37.5-37.5-90.5 37.5-90.5 90.5-37.5 90.5 37.5 37.5 90.5zm-640 640q0 53-37.5 90.5t-90.5 37.5-90.5-37.5-37.5-90.5 37.5-90.5 90.5-37.5 90.5 37.5 37.5 90.5zm448-192q0 53-37.5 90.5t-90.5 37.5-90.5-37.5-37.5-90.5 37.5-90.5 90.5-37.5 90.5 37.5 37.5 90.5zm320-448q0-261-141-483-19-29-54-29h-1402q-35 0-54 29-141 221-141 483 0 182 71 348t191 286 286 191 348 71 348-71 286-191 191-286 71-348z"/><glyph unicode="" horiz-adv-x="1792" d="M896 1152q-204 0-381.5-69.5t-282-187.5-104.5-255q0-112 71.5-213.5t201.5-175.5l87-50-27-96q-24-91-70-172 152 63 275 171l43 38 57-6q69-8 130-8 204 0 381.5 69.5t282 187.5 104.5 255-104.5 255-282 187.5-381.5 69.5zm896-512q0-174-120-321.5t-326-233-450-85.5q-70 0-145 8-198-175-460-242-49-14-114-22h-5q-15 0-27 10.5t-16 27.5v1q-3 4-.5 12t2 10 4.5 9.5l6 9 7 8.5 8 9q7 8 31 34.5t34.5 38 31 39.5 32.5 51 27 59 26 76q-157 89-247.5 220t-90.5 281q0 174 120 321.5t326 233 450 85.5 450-85.5 326-233 120-321.5z"/></font>
</defs>
</svg>
